<?xml version="1.0" standalone="no"?>
<!DOCTYPE svg PUBLIC "-//W3C//DTD SVG 1.1//EN" "http://www.w3.org/Graphics/SVG/1.1/DTD/svg11.dtd" >
<svg xmlns="http://www.w3.org/2000/svg">
<defs>
  <font id="wglicon" horiz-adv-x="300">
    <font-face font-family="wglicon"
      units-per-em="300" ascent="300"
      descent="0" />
    <missing-glyph horiz-adv-x="0" />
    <glyph glyph-name="001-categories"
      unicode="&#xF101;"
      horiz-adv-x="300" d="M35.125 264.875C17.375 247.25 17.375 189.875 35.125 172.625A69.75 69.75 0 0 1 81.25 159.375A69.75 69.75 0 0 1 127.375 172.625C145.125 190.25 145.125 247.625 127.375 264.875S52.75 282.625 35.125 264.875zM35.125 127.375C17.375 109.75 17.375 52.375 35.125 35.125A69.75 69.75 0 0 1 81.25 21.875A69.75 69.75 0 0 1 127.375 35.125C145.125 52.75 145.125 110.125 127.375 127.375S52.75 145.125 35.125 127.375zM218.75 159.375A69.75 69.75 0 0 1 264.875 172.625C282.625 190.25 282.625 247.625 264.875 264.875S189.875 282.625 172.625 264.875S154.875 189.875 172.625 172.625A69.75 69.75 0 0 1 218.75 159.375zM172.625 127.375C154.875 109.75 154.875 52.375 172.625 35.125A69.75 69.75 0 0 1 218.75 21.875A69.75 69.75 0 0 1 264.8750000000001 35.125C282.6250000000001 52.75 282.6250000000001 110.125 264.8750000000001 127.375S190.25 145.125 172.625 127.375z" />
    <glyph glyph-name="002-more"
      unicode="&#xF102;"
      horiz-adv-x="300" d="M55.0909090909091 210.2727272727273A34.6363636363636 34.6363636363636 0 0 1 124.3636363636364 210.2727272727273A34.6363636363636 34.6363636363636 0 0 1 55.0909090909091 210.2727272727273M55.0909090909091 89.7272727272727A34.6363636363636 34.6363636363636 0 0 1 124.3636363636364 89.7272727272727A34.6363636363636 34.6363636363636 0 0 1 55.0909090909091 89.7272727272727M175.6363636363636 210.2727272727273A34.6363636363636 34.6363636363636 0 0 1 244.909090909091 210.2727272727273A34.6363636363636 34.6363636363636 0 0 1 175.6363636363636 210.2727272727273M175.6363636363636 89.7272727272727A34.6363636363636 34.6363636363636 0 0 1 244.909090909091 89.7272727272727A34.6363636363636 34.6363636363636 0 0 1 175.6363636363636 89.7272727272727" />
    <glyph glyph-name="003-user"
      unicode="&#xF103;"
      horiz-adv-x="300" d="M149.5435804731111 152.3089997900817C169.1870453892355 163.5522666085146 182.6087754016471 184.4870349952208 182.6087754016471 208.6959180054905C182.6087754016471 244.656763140786 153.3520697336483 273.9134688087848 117.3912245983529 273.9134688087848S52.1736737950586 244.6567631407859 52.1736737950586 208.6959180054905C52.1736737950586 184.4870349952208 65.5954038074703 163.5522666085145 85.2388687235946 152.3089997900817C36.1045271029028 139.4088047494533 0 97.8651509068268 0 48.6262577267271V32.6090811079612C0 29.0090835536117 2.9219409497684 26.0871426038433 6.5219385041179 26.0871426038433S13.0438770082357 29.0090835536117 13.0438770082357 32.6090811079612V48.6262577267271C13.0432655956076 100.917322746384 59.8566848799695 143.4783672021962 117.3912245983529 143.4783672021962S221.7391836010981 100.917322746384 221.7391836010981 48.6262577267271V32.6090811079612C221.7391836010981 29.0090835536117 224.6611245508665 26.0871426038433 228.261122105216 26.0871426038433C231.8611196595655 26.0871426038433 234.7830606093339 29.0090835536117 234.7830606093339 32.6090811079612V48.6262577267271C234.7824491967058 97.8651509068268 198.677922093803 139.4216444146437 149.5435804731111 152.3089997900817zM65.2175508032943 208.6959180054905C65.2175508032943 237.4696076972774 88.617534906566 260.8695918005491 117.3912245983529 260.8695918005491S169.5648983934114 237.4696076972774 169.5648983934114 208.6959180054905C169.5648983934114 179.9222283137036 146.1649142901397 156.5222442104319 117.3912245983529 156.5222442104319S65.2175508032943 179.9216169010755 65.2175508032943 208.6959180054905zM237.3650561378695 152.1390270794653C251.5039731630617 161.4911946391341 260.8695918005491 177.4826919275191 260.8695918005491 195.6520409972548C260.8695918005491 224.4257306890417 237.4696076972774 247.8257147923133 208.6959180054905 247.8257147923133C205.095920451141 247.8257147923133 202.1739795013726 244.903773842545 202.1739795013726 241.3037762881955S205.095920451141 234.7818377840776 208.6959180054905 234.7818377840776C230.2696125885784 234.7818377840776 247.8263262049414 217.2251241677146 247.8263262049414 195.6514295846266S230.2696125885784 156.5210213851757 208.6959180054905 156.5210213851757C205.095920451141 156.5210213851757 202.1739795013726 153.5990804354073 202.1739795013726 149.9990828810578S205.0953090385129 143.4783672021962 208.6953065928624 143.4783672021962C251.8561468368568 143.4783672021962 286.9561229917643 111.0392588048514 286.9561229917643 71.1525331844204V58.6962237118045C286.9561229917643 55.0962261574551 289.8780639415327 52.1742852076867 293.4780614958822 52.1742852076867C297.0780590502316 52.1742852076867 300 55.0962261574551 300 58.6962237118045V71.1525331844204C300 108.8479559456821 273.704365689969 140.8694695180234 237.3650561378695 152.1390270794653z" />
    <glyph glyph-name="004-share"
      unicode="&#xF104;"
      horiz-adv-x="300" d="M225 124.9998046875C203.9748046875 124.9998046875 184.725 114.4998046875 173.3126953125 97.412109375L109.137890625 131.9748046875C111.3375 137.6501953125 112.5 143.775 112.5 150S111.3375 162.3626953125 109.1373046875 168.0251953125L173.325 202.4876953125C184.8626953125 185.4375 204.0873046875 175.0001953125 225 175.0001953125C259.4625000000001 175.0001953125 287.5001953125 203.037890625 287.5001953125 237.500390625C287.5001953125 271.9623046875 259.4625 300 225 300C190.5375 300 162.4998046875 271.9623046875 162.4998046875 237.4998046875C162.4998046875 229.125 164.2248046875 220.9623046875 167.387109375 213.4875L103.149609375 178.9998046875C93.774609375 192.075 78.7119140625 199.9998046875 62.499609375 199.9998046875C34.9248046875 199.9998046875 12.4998046875 177.5748046875 12.4998046875 150S34.9248046875 100.0001953125 62.499609375 100.0001953125C78.7248046875 100.0001953125 93.774609375 107.925 103.1373046875 120.987890625L167.325 86.4251953125C164.2001953125 78.975 162.4998046875 70.8375 162.4998046875 62.5001953125C162.4998046875 28.0376953125 190.5375 0 225 0C259.4625000000001 0 287.5001953125 28.0376953125 287.5001953125 62.5001953125C287.5001953125 96.9626953125 259.4625 124.9998046875 225 124.9998046875zM225 287.5001953125C252.5748046875 287.5001953125 274.9998046875 265.0751953125 274.9998046875 237.500390625S252.5748046875 187.5 225 187.5C206.8125 187.5 190.1625 197.2875 181.35 213.075C181.2375 213.3626953125 181.1126953125 213.6375 180.975 213.9C177.0626953125 220.9376953125 175.0001953125 229.0998046875 175.0001953125 237.4998046875C175.0001953125 265.0751953125 197.4251953125 287.5001953125 225 287.5001953125zM95.5125 132.2373046875C88.875 120.0626953125 76.2251953125 112.5 62.5001953125 112.5C41.825390625 112.5 25.0001953125 129.3251953125 25.0001953125 150S41.825390625 187.5 62.5001953125 187.5C76.2251953125 187.5 88.875 179.9373046875 95.525390625 167.7375C98.450390625 162.4125 100.0001953125 156.2748046875 100.0001953125 150S98.4498046875 137.5875 95.5125 132.2373046875zM225 12.4998046875C197.4251953125 12.4998046875 175.0001953125 34.9248046875 175.0001953125 62.499609375C175.0001953125 70.8873046875 177.0626953125 79.037109375 181.0001953125 86.1498046875V86.162109375C181.0001953125 86.162109375 181.0001953125 86.1744140625001 181.0125000000001 86.1744140625001C189.6498046875 102.4125 206.5125 112.5 225 112.5C252.5748046875 112.5 274.9998046875 90.075 274.9998046875 62.5001953125C274.9998046875 34.9248046875 252.5748046875 12.4998046875 225 12.4998046875z" />
    <glyph glyph-name="005-chat"
      unicode="&#xF105;"
      horiz-adv-x="300" d="M281.25 274.9998046875H18.75C8.4123046875 274.9998046875 0 266.5875 0 256.2498046875V93.75C0 83.4123046875 8.4123046875 75 18.75 75H154.7748046875L253.4625 25.6623046875C254.3373046875 25.224609375 255.3000000000001 24.999609375 256.2498046875 24.999609375C257.4000000000001 24.999609375 258.5373046875 25.3119140625 259.5375 25.9248046875001C261.375 27.075 262.5 29.087109375 262.5 31.2498046875V75H281.25C291.5876953125001 75 300 83.4123046875 300 93.75V256.2498046875C300 266.5875 291.5876953125 274.9998046875 281.25 274.9998046875zM287.5001953125 93.75C287.5001953125 90.3123046875 284.6876953125 87.4998046875 281.25 87.4998046875H256.2498046875C252.7998046875 87.4998046875 249.999609375 84.699609375 249.999609375 81.249609375V41.3619140625L159.0498046875 86.8494140625001C158.175 87.2619140625 157.2123046875 87.49921875 156.249609375 87.49921875H18.75C15.3123046875 87.49921875 12.4998046875 90.31171875 12.4998046875 93.7494140625V256.2498046875C12.4998046875 259.6998046875 15.3123046875 262.5 18.75 262.5H281.25C284.6876953125 262.5 287.5001953125 259.6998046875 287.5001953125 256.2498046875V93.75zM62.5001953125 175.0001953125A12.4998046875 12.4998046875 0 0 1 87.4998046875 175.0001953125A12.4998046875 12.4998046875 0 0 1 62.5001953125 175.0001953125M212.5001953125 175.0001953125A12.4998046875 12.4998046875 0 0 1 237.4998046875 175.0001953125A12.4998046875 12.4998046875 0 0 1 212.5001953125 175.0001953125M137.5001953125 175.0001953125A12.4998046875 12.4998046875 0 0 1 162.4998046875 175.0001953125A12.4998046875 12.4998046875 0 0 1 137.5001953125 175.0001953125" />
    <glyph glyph-name="006-settings"
      unicode="&#xF106;"
      horiz-adv-x="300" d="M281.5125 187.5H256.0875C254.775 191.2001953125 253.2375 194.8623046875 251.5125 198.4623046875L269.5125 216.4623046875C273 219.962109375 274.9376953125 224.5998046875 274.9376953125 229.5375C274.9376953125 234.4875 273.012890625 239.1251953125 269.5125 242.6126953125L242.6373046875 269.5001953125C235.637109375 276.4751953125 223.4625 276.4751953125 216.4875 269.5001953125L198.4875 251.5001953125C194.8751953125 253.2251953125 191.2001953125 254.7626953125 187.5 256.0751953125V281.5125C187.5 291.7001953125 179.2001953125 300 169.0125 300H130.9998046875C120.7998046875 300 112.5 291.7001953125 112.5 281.5125V256.0751953125C108.7998046875 254.7626953125 105.1248046875 253.2251953125 101.5248046875 251.5001953125L83.5248046875 269.5001953125C76.5498046875 276.4751953125 64.374609375 276.4875 57.375 269.5001953125L30.4998046875 242.625C27 239.1251953125 25.074609375 234.4875 25.074609375 229.5498046875C25.074609375 224.612109375 26.9994140625 219.975 30.4998046875 216.474609375L48.4998046875 198.474609375C46.7625 194.8623046875 45.2373046875 191.199609375 43.9248046875 187.4994140625H18.4875C8.2998046875 187.5 0 179.2001953125 0 169.0125V130.9875C0 120.7998046875 8.2998046875 112.5 18.4875 112.5H43.9125C45.225 108.8126953125 46.7625 105.1376953125 48.4875 101.5248046875L30.4875 83.537109375C27 80.049609375 25.0623046875 75.4119140625 25.0623046875 70.4619140625S26.9748046875 60.87421875 30.4875 57.3744140625L57.3626953125 30.49921875C64.362890625 23.4990234375 76.5626953125 23.52421875 83.5125 30.49921875L101.5125 48.49921875C105.1376953125 46.7619140625 108.8126953125 45.23671875 112.5 43.92421875V18.49921875C112.5 8.2998046875 120.7998046875 0 130.9875 0H169.0001953125C179.2001953125 0 187.5 8.2998046875 187.5 18.4875V43.9125C191.1873046875 45.225 194.8623046875 46.7625 198.4751953125 48.4875L216.462890625 30.4875C223.437890625 23.5125 235.625390625 23.4873046875 242.6255859375 30.4875L269.5007812500001 57.3626953125C273.0005859375001 60.8625 274.9259765625 65.5001953125 274.9259765625 70.4501953125C274.9259765625 75.4001953125 273.001171875 80.0378906250001 269.5007812500001 83.5125000000001L251.5007812500001 101.5125C253.2380859375 105.1248046875001 254.7632812500001 108.7998046875 256.0757812500001 112.4876953125H281.5007812500001C291.7001953125 112.5 300 120.7998046875 300 130.9875V169.0125C300 179.2001953125 291.7001953125 187.5 281.5125 187.5zM287.5001953125 130.9875C287.5001953125 127.6875 284.8125 124.9998046875 281.5125 124.9998046875H251.5623046875C248.8125 124.9998046875 246.399609375 123.1998046875 245.5875 120.5748046875C243.7751953125 114.7248046875 241.35 108.8748046875 238.35 103.2123046875C237.0626953125 100.8 237.525 97.8123046875 239.4626953125 95.874609375L260.6625 74.6619140625C261.7998046875 73.5369140625 262.425 72.0369140625 262.425 70.449609375C262.425 68.837109375 261.7998046875 67.337109375 260.6625 66.1998046875L233.7873046875 39.324609375C231.512109375 37.0494140625 227.5875 37.0494140625 225.3123046875 39.324609375L204.1125 60.5244140625C202.1876953125 62.462109375 199.1748046875 62.912109375 196.7748046875 61.637109375C191.1123046875 58.637109375 185.2623046875 56.199609375 179.4123046875 54.399609375C176.799609375 53.5998046875 174.999609375 51.1869140625 174.999609375 48.437109375V18.4869140625C174.999609375 15.1869140625 172.3119140625 12.49921875 169.0119140625 12.49921875H130.99921875C127.6869140625 12.49921875 124.99921875 15.1869140625 124.99921875 18.4869140625V48.437109375C124.99921875 51.1869140625 123.19921875 53.5998046875 120.57421875 54.4119140625C114.72421875 56.22421875 108.87421875 58.6494140625 103.21171875 61.6494140625C102.2994140625 62.1369140625 101.29921875 62.37421875 100.2990234375 62.37421875C98.67421875 62.37421875 97.0740234375 61.73671875 95.8740234375 60.5490234375L74.67421875 39.34921875C72.3990234375 37.0740234375 68.4744140625 37.0740234375 66.19921875 39.34921875L39.3240234375 66.2244140625C38.18671875 67.36171875 37.5615234375 68.86171875 37.5615234375 70.47421875C37.5615234375 72.0615234375 38.18671875 73.5615234375 39.3240234375 74.6994140625L60.523828125 95.89921875C62.4615234375 97.8369140625 62.9115234375 100.8240234375 61.6365234375 103.2369140625C58.6365234375 108.8994140625 56.1990234375 114.7494140625 54.3990234375 120.5994140625C53.59921875 123.19921875 51.186328125 124.9992187500001 48.4365234375 124.9992187500001H18.4875C15.1875 124.9992187500001 12.4998046875 127.6869140625 12.4998046875 130.9869140625V169.0119140625001C12.4998046875 172.3119140625 15.1875 174.999609375 18.4875 174.999609375H48.4376953125C51.1875 174.999609375 53.600390625 176.7873046875 54.4125 179.4123046875001C56.2248046875 185.2875 58.65 191.124609375 61.6376953125 196.7625000000001C62.937890625 199.1876953125001 62.475 202.1748046875 60.537890625 204.1125000000001L39.3251953125 225.3123046875001C38.2001953125 226.449609375 37.575 227.949609375 37.575 229.5498046875001S38.2001953125 232.6500000000001 39.3375 233.7873046875001L66.2126953125 260.6625C68.487890625 262.9376953125001 72.4125 262.9248046875001 74.6876953125 260.6625L95.8875 239.4626953125001C97.8123046875 237.5250000000001 100.8123046875 237.0878906250001 103.2375 238.3628906250001C108.8625 241.3505859375001 114.7125 243.7880859375001 120.5876953125 245.5880859375001C123.200390625 246.3878906250001 125.000390625 248.8130859375001 125.000390625 251.5628906250001V281.5125C125.000390625 284.8125 127.6880859375 287.5001953125 130.9880859375 287.5001953125H169.00078125C172.3130859375 287.5001953125 175.00078125 284.8125 175.00078125 281.5125V251.5623046875C175.00078125 248.8125 176.80078125 246.3873046875 179.42578125 245.5875C185.3009765625 243.7751953125 191.1509765625 241.35 196.7759765625 238.3623046875C199.201171875 237.0873046875 202.201171875 237.525 204.1259765625 239.462109375L225.32578125 260.6619140625C227.6009765625 262.92421875 231.5255859375 262.92421875 233.80078125 260.6619140625L260.6759765625 233.7744140625C261.81328125 232.6494140625 262.4384765625 231.1494140625 262.4384765625 229.54921875S261.81328125 226.4490234375 260.6759765625 225.31171875L239.476171875 204.1119140625C237.5384765625 202.17421875 237.0884765625 199.187109375 238.3763671875 196.7619140625C241.3640625 191.124609375 243.8015625 185.2869140625 245.6015625000001 179.41171875C246.4013671875001 176.78671875 248.8142578125 174.9990234375 251.5640625 174.9990234375H281.5142578125001C284.8142578125 174.9990234375 287.501953125 172.311328125 287.501953125 169.011328125V130.9875zM150 237.4998046875C101.7626953125 237.4998046875 62.5001953125 198.249609375 62.5001953125 150C62.5001953125 101.7626953125 101.7626953125 62.5001953125 150 62.5001953125S237.4998046875 101.7626953125 237.4998046875 150C237.4998046875 198.2501953125 198.2373046875 237.4998046875 150 237.4998046875zM150 75C108.6375 75 75 108.6375 75 150S108.6375 225 150 225S225 191.3625 225 150S191.3625 75 150 75z" />
    <glyph glyph-name="007-user-1"
      unicode="&#xF107;"
      horiz-adv-x="300" d="M187.2428571428571 152.2714285714286C211.8287946428571 165.5712053571429 228.5712053571428 191.5854910714286 228.5712053571428 221.4287946428572C228.5712053571429 264.7426339285714 193.3145089285714 300 150 300S71.4287946428571 264.7426339285714 71.4287946428571 221.4287946428572C71.4287946428571 191.5861607142857 88.171875 165.571875 112.7571428571429 152.2714285714286C48.0287946428571 135.6428571428572 0 76.9854910714286 0 7.1430803571429C0 3.2002232142858 3.2002232142857 0 7.1430803571429 0S14.2861607142857 3.2002232142858 14.2861607142857 7.1430803571429C14.2861607142857 81.9716517857143 75.1720982142857 142.8575892857143 150.0006696428571 142.8575892857143S285.7151785714286 81.9716517857143 285.7151785714286 7.1430803571429C285.7151785714286 3.2002232142858 288.9154017857143 0 292.8582589285714 0S300 3.2002232142858 300 7.1430803571429C300 76.9854910714286 251.9712053571428 135.6428571428572 187.2428571428571 152.2714285714286zM85.7142857142857 221.4287946428572C85.7142857142857 256.8716517857143 114.5571428571429 285.7145089285715 150 285.7145089285715S214.2857142857143 256.8716517857143 214.2857142857143 221.4287946428572C214.2857142857143 185.9859375 185.4428571428571 157.1430803571429 150 157.1430803571429S85.7142857142857 185.9859375 85.7142857142857 221.4287946428572z" />
    <glyph glyph-name="008-check"
      unicode="&#xF108;"
      horiz-adv-x="300" d="M268.7501953125 168.88125H193.7501953125C190.3001953125 168.88125 187.5 166.0810546875 187.5 162.6310546875S190.3001953125 156.380859375 193.7501953125 156.380859375H268.7501953125C272.2001953125 156.380859375 275.000390625 159.1810546875 275.000390625 162.6310546875S272.2001953125 168.88125 268.7501953125 168.88125zM268.7501953125 131.38125H193.7501953125C190.3001953125 131.38125 187.5 128.5810546875 187.5 125.1310546875S190.3001953125 118.880859375 193.7501953125 118.880859375H268.7501953125C272.2001953125 118.880859375 275.000390625 121.6810546875 275.000390625 125.1310546875S272.2001953125 131.38125 268.7501953125 131.38125zM274.9998046875 87.6310546875C274.9998046875 91.0810546875 272.199609375 93.88125 268.7496093750001 93.88125H31.2498046875C27.7998046875 93.88125 24.999609375 91.0810546875 24.999609375 87.6310546875C24.999609375 84.1810546875 27.7998046875 81.380859375 31.2498046875 81.380859375H268.7496093750001C272.2001953125 81.3814453125 274.9998046875 84.1810546875 274.9998046875 87.6310546875zM31.2498046875 56.38125C27.7998046875 56.38125 24.999609375 53.5810546875 24.999609375 50.1310546875C24.999609375 46.6810546875 27.7998046875 43.880859375 31.2498046875 43.880859375H243.75C247.2 43.880859375 250.0001953125 46.6810546875 250.0001953125 50.1310546875C250.0001953125 53.5810546875 247.2 56.38125 243.75 56.38125H31.2498046875zM293.7498046875 206.38125H196.0001953125C192.5501953125 206.38125 189.75 203.5810546875 189.75 200.1310546875S192.5501953125 193.880859375 196.0001953125 193.880859375H287.5001953125V70.055859375C287.5001953125 41.8435546875 264.5501953125 18.8806640625 236.325 18.8806640625H12.4998046875V193.8814453125H66.624609375C70.074609375 193.8814453125 72.8748046875 196.681640625 72.8748046875 200.131640625S70.074609375 206.3818359375 66.624609375 206.3818359375H6.2501953125C2.8001953125 206.38125 0 203.5810546875 0 200.1310546875V12.6310546875C0 9.1810546875 2.8001953125 6.380859375 6.2501953125 6.380859375H236.325C271.4373046875 6.380859375 300 34.9435546875 300 70.055859375V200.1310546875C300 203.5810546875 297.1998046875 206.38125 293.7498046875 206.38125zM64.9875 171.1060546875L50.325 127.10625C49.575 124.85625 50.1626953125 122.38125 51.8373046875 120.7060546875C53.025 119.518359375 54.624609375 118.880859375 56.25 118.880859375C56.9126953125 118.880859375 57.5748046875 118.993359375 58.2251953125 119.1931640625L102.225 133.8556640625C103.1501953125 134.1556640625 103.9875 134.6806640625 104.6625 135.36796875L217.0998046875 247.8064453125C222.1875 252.9064453125 225 259.6810546875 225 266.8939453125C225 274.10625 222.1875 280.8814453125 217.0998046875 285.969140625C206.8998046875 296.169140625 189.137109375 296.169140625 178.9248046875 285.969140625L66.4998046875 173.5435546875C65.8125 172.85625 65.2998046875 172.0189453125 64.9875 171.1060546875zM187.7748046875 277.1314453125C193.2498046875 282.6064453125 202.787109375 282.6064453125 208.275 277.1314453125C210.9873046875 274.3939453125 212.5001953125 270.7564453125 212.5001953125 266.8939453125C212.5001953125 263.0314453125 210.987890625 259.381640625 208.2626953125 256.644140625L96.8748046875 145.25625L66.137109375 135.0064453125L76.3869140625 165.744140625L187.7748046875 277.1314453125z" />
    <glyph glyph-name="009-mail"
      unicode="&#xF109;"
      horiz-adv-x="300" d="M299.8248046875001 257.1375C299.7498046875001 257.5998046875 299.7123046875 258.0626953125 299.55 258.4998046875C299.3748046875001 258.962109375 299.0876953125001 259.337109375 298.8123046875 259.725C298.6500000000001 259.9623046875 298.5750000000001 260.2376953125 298.374609375 260.4626953125C298.3494140625 260.5001953125 298.299609375 260.5125 298.2744140625 260.5376953125C297.924609375 260.900390625 297.4869140625001 261.15 297.062109375 261.425390625C296.799609375 261.5876953125 296.574609375 261.8255859375 296.2869140625 261.950390625C295.96171875 262.0880859375 295.599609375 262.1126953125 295.24921875 262.2005859375C294.79921875 262.3130859375 294.3615234375 262.4630859375 293.9115234375 262.475390625C293.848828125 262.475390625 293.7990234375 262.5005859375 293.74921875 262.5005859375H6.2501953125C6.200390625 262.5005859375 6.162890625 262.475390625 6.1125 262.475390625C5.6625 262.4630859375 5.25 262.3130859375 4.8123046875 262.212890625C4.449609375 262.1255859375 4.0623046875 262.100390625 3.7125 261.9380859375C3.4751953125 261.837890625 3.2748046875 261.62578125 3.0375 261.4880859375C2.5751953125 261.200390625 2.1123046875 260.9255859375 1.7373046875 260.53828125C1.712109375 260.50078125 1.6623046875 260.50078125 1.637109375 260.46328125C1.4373046875 260.23828125 1.3623046875 259.9634765625001 1.1994140625 259.7255859375C0.924609375 259.325390625 0.624609375 258.950390625 0.4494140625 258.500390625C0.287109375 258.0626953125 0.249609375 257.600390625 0.174609375 257.1380859375C0.1376953125 256.8375 0 256.5626953125 0 256.2498046875V43.749609375C0 40.3001953125 2.8001953125 37.5 6.2501953125 37.5H293.750390625C297.200390625 37.5 300.0005859375 40.3001953125 300.0005859375 43.7501953125V256.2498046875C300 256.5626953125 299.8623046875 256.8375 299.8248046875001 257.1375zM277.6376953125 250.0001953125L150 133.4625L22.3623046875 250.0001953125H277.6376953125zM287.5001953125 49.9998046875H12.4998046875V242.0876953125L145.787109375 120.387890625C146.987109375 119.300390625 148.487109375 118.7501953125 149.9994140625 118.7501953125S153.01171875 119.300390625 154.21171875 120.387890625L287.5001953125 242.0876953125V49.9998046875z" />
    <glyph glyph-name="010-user-2"
      unicode="&#xF10A;"
      horiz-adv-x="300" d="M150 300C67.2873046875 300 0 232.7126953125 0 150C0 112.7876953125 13.7625 77.1123046875 38.7251953125 49.5626953125C38.7251953125 49.5626953125 38.7251953125 49.5626953125 38.7251953125 49.550390625L38.7375 49.5380859375C67.1373046875 18.0626953125 107.6876953125 0 150 0C192.7125 0 233.5623046875 18.3498046875 262.0376953125001 50.3373046875C262.0376953125001 50.3373046875 262.0376953125001 50.349609375 262.05 50.3625C286.5251953125 77.8125 300 113.2001953125 300 150C300 232.7126953125 232.7126953125 300 150 300zM150 12.4998046875C112.3248046875 12.4998046875 76.1748046875 28.125 50.2751953125 55.4748046875L59.600390625 91.524609375C62.2875 103.6751953125 74.2875 112.5 88.125 112.5H120C129.6498046875 112.5 137.5001953125 120.3498046875 137.5001953125 130.6751953125C137.5001953125 136.2626953125 134.7251953125 141.525 129.8876953125 145.100390625C107.262890625 161.8880859375 105.500390625 194.6126953125 105.500390625 204.2501953125C105.500390625 235.0376953125001 119.8880859375 250.0001953125 149.5001953125 250.0001953125C179.6126953125 250.0001953125 194.8751953125 234.6128906250001 194.8751953125 204.2501953125C194.8751953125 184.512890625 188.375390625 158.625 170.1251953125 145.1126953125C165.275390625 141.525 162.500390625 136.250390625 162.500390625 130.0001953125001C162.500390625 120.3503906250001 170.3501953125 112.5 180.0005859375 112.5H214.250390625C228.087890625 112.5 240.0755859375 103.6751953125001 242.7755859375 91.5251953125001L250.5755859375 56.3126953125C224.5751953125 28.425 188.1 12.4998046875 150 12.4998046875zM260.6748046875 68.475L254.9748046875 94.2251953125C250.974609375 112.35 234.225 125.000390625 214.2498046875 125.000390625H180C177.2373046875 125.000390625 175.0001953125 127.250390625 175.0001953125 130.662890625C175.0001953125 132.9251953125 176.787890625 134.487890625 177.5625 135.0626953125C205.2251953125 155.55 207.375 193.2 207.375 204.2501953125C207.375 241.2626953125 186.2748046875 262.5 149.5001953125 262.5C113.0625 262.5 93 241.8123046875 93 204.2501953125C93 193.137890625 95.1251953125 155.325 122.4375 135.0626953125C123.2126953125 134.487890625 124.9998046875 132.9251953125 124.9998046875 130.0001953125C124.9998046875 127.250390625 122.7498046875 125.000390625 120 125.000390625H88.125C68.1498046875 125.000390625 51.4001953125 112.3505859375 47.4498046875 94.437890625L40.3998046875 67.1630859375C22.35 90.9123046875 12.4998046875 119.8998046875 12.4998046875 150C12.4998046875 225.8126953125 74.1873046875 287.5001953125 150 287.5001953125S287.5001953125 225.8126953125 287.5001953125 150C287.5001953125 120.4998046875 278.0501953125 91.9998046875 260.6748046875 68.475z" />
    <glyph glyph-name="011-down-arrow"
      unicode="&#xF10B;"
      horiz-adv-x="300" d="M297.1898492385757 171.951812594116C293.4457159263361 175.701219333556 287.3672121734137 175.701219333556 283.6125320067734 171.951812594116L159.6026179636368 47.9319376329343V275.2500483397494C159.6026179636368 280.5539442305777 155.3071185407841 284.8494436534304 150.0032226499558 284.8494436534304S140.4038273362747 280.5539442305777 140.4038273362747 275.2500483397494V47.9219767148892L16.3892258022934 171.951812594116C12.6345456356531 175.701219333556 6.561315309931 175.701219333556 2.8119085704911 171.951812594116C-0.9374981689489 168.2076792818764 -0.9374981689489 162.1291755289541 2.8119085704911 158.3744953623138L143.2122202886323 17.9583633625716C143.5924929834122 17.5786766041473 144.0067499868164 17.2429350723925 144.4391710172441 16.9359044220617C144.5100693162709 16.8855138954807 144.5762801244529 16.8298499416994 144.6483502961908 16.7812172241851C144.7760844217101 16.6956705162685 144.9102638471409 16.6218425354638 145.0420995271494 16.5421551911032C145.1809664434249 16.4577803558977 145.3169036779225 16.3693039662032 145.4604580850428 16.2925463036205C145.5536219655821 16.2427417133951 145.6508874006105 16.2023121048592 145.745223153861 16.1554371964118C145.9327227876508 16.0622733158725 146.119636485085 15.967937562622 146.3135814187863 15.8870783455501C146.3833078451019 15.8577815277704 146.4559639531954 15.8366878189691 146.5268622522222 15.8091488102563C146.7483461946363 15.7230161659841 146.9704160734061 15.6386413307787 147.199517188443 15.5689149044631C147.2639701875582 15.5495790047285 147.3301809957402 15.5366884049055 147.3946339948555 15.5185243778821C147.6301804098039 15.4523135697 147.8668986974635 15.3878605705848 148.1100622850346 15.3392278530706C148.2126011472634 15.3187200806248 148.3180696912701 15.3087591625797 148.4211944898545 15.2917670082676C148.6274440870233 15.2577826996431 148.8325218114808 15.2202827728852 149.0434588994944 15.1991890640838C149.3610364042258 15.1675485008818 149.6815435907352 15.1505563465696 150.0032226499558 15.1505563465696C150.3243157728208 15.1505563465696 150.6442370229746 15.1669625645262 150.9612285913504 15.1991890640838C151.1809547246978 15.2208687092408 151.3948214944892 15.25954050871 151.6098601369919 15.2958685627567C151.7041958902424 15.3116888443577 151.7997035162041 15.3204778896916 151.8934533330989 15.3392278530706C152.142476284226 15.389032443296 152.3856398717971 15.4546573151225 152.627631586657 15.5232118687268C152.6862252222163 15.5396180866834 152.7459907304868 15.5507508774397 152.8039984296905 15.5683289681075C153.0342714174386 15.6386413307787 153.2580991052751 15.7236021023397 153.4807549204005 15.8103206829675C153.5504813467161 15.8372737553247 153.6219655820984 15.858367464126 153.6911060720584 15.8870783455501C153.8809494512706 15.9661797535552 154.0625897215044 16.0581717613833 154.245987800805 16.1489918965002C154.3455969812559 16.1982105503701 154.4481358434846 16.2409839043283 154.5459872148687 16.2931322399761C154.6819244493663 16.3663742844252 154.8102445112411 16.4507491196306 154.9426661276052 16.5298505276357C155.0815330438808 16.6130534901299 155.2227437055787 16.6915689617794 155.3575090673651 16.7818031605407C155.4260636209695 16.8280921326325 155.4893447473735 16.8814123409915 155.5573133646223 16.9294591221502C155.9920781404724 17.2382475815477 156.408678889299 17.5763328587249 156.7907093931457 17.9583633625716L297.1910211112869 158.3744953623137C300.9392559780157 162.1239021017537 300.9339825508154 168.2024058546761 297.1898492385757 171.951812594116z" />
    <glyph glyph-name="013-apple-black-logo"
      unicode="&#xF10C;"
      horiz-adv-x="300" d="M232.2038686420363 131.8388085712524C223.9515216141425 173.3703101717473 263.3720409742628 197.7280730199719 263.3720409742628 197.7280730199719S248.0132575493826 219.9485931758635 222.2010237597408 225.6650161044211C196.4013233676245 231.3939724305043 183.4889397740408 224.2362087865085 170.6016229755082 218.8677368463982C157.70177277945 213.4861346803089 151.2649779074001 213.4861346803089 151.2649779074001 213.4861346803089C132.6493016112379 213.4861346803089 119.0410160407594 233.196394360369 83.5732915288159 224.2230785605294C59.1385378100773 218.0566469779591 33.415828288475 189.8493406040302 28.7683251203107 156.1834411934978C24.1208219521463 122.5050083854398 34.1499272864001 79.531569241053 53.4865723545082 46.2261542164935C72.8232174226162 12.8950755684294 92.5209437051509 0.3688399843233 106.5016502306742 0.0083555983504C120.4829535846512 -0.3389985616434 134.4385933151235 10.024330706625 151.2649779074001 12.5477214084356C168.1044927256559 15.0454484867415 178.4678219939243 6.4451504704003 194.9850494472374 1.7976473022359C211.437819427562 -2.8373224684029 217.205569603129 1.4628265397677 236.1560666617595 17.5813725860776C255.1578909673993 33.6999186323876 272.357890171628 79.9302506480563 272.357890171628 79.9302506480563S240.45621566993 90.2816433472527 232.2038686420363 131.8388085712524zM195.6672243696995 252.5336362569307C213.9480799033934 271.1618459506184 207.7559846973185 300 207.7559846973185 300S182.0851992511793 295.4939451753383 164.8852000469505 277.599237651122C147.698331068701 259.6913999009265 150.5434123070006 231.4071026564835 150.5434123070006 231.4071026564835S177.3857720075519 233.9173631323149 195.6672243696995 252.5336362569307z" />
    <glyph glyph-name="014-add"
      unicode="&#xF10D;"
      horiz-adv-x="300" d="M273.2142857142857 176.7857142857143H182.1428571428572C179.1843957589285 176.7857142857143 176.7857142857143 179.1843957589286 176.7857142857143 182.1428571428572V273.2142857142857C176.7857142857143 288.0065919642857 164.79230625 300 150 300S123.2142857142857 288.0065919642857 123.2142857142857 273.2142857142857V182.1428571428572C123.2142857142857 179.1843957589286 120.8156042410714 176.7857142857143 117.8571428571429 176.7857142857143H26.7857142857143C11.9934080357143 176.7857142857143 0 164.79230625 0 150S11.9934080357143 123.2142857142857 26.7857142857143 123.2142857142857H117.8571428571429C120.8156042410714 123.2142857142857 123.2142857142857 120.8156042410715 123.2142857142857 117.8571428571429V26.7857142857143C123.2142857142857 11.9934080357143 135.20769375 0 150 0S176.7857142857143 11.9934080357143 176.7857142857143 26.7857142857143V117.8571428571429C176.7857142857143 120.8156042410715 179.1843957589285 123.2142857142857 182.1428571428572 123.2142857142857H273.2142857142857C288.0065919642857 123.2142857142857 300 135.20769375 300 150S288.0065919642857 176.7857142857143 273.2142857142857 176.7857142857143zM273.2142857142857 176.7857142857143" />
    <glyph glyph-name="015-quote"
      unicode="&#xF10E;"
      horiz-adv-x="300" d="M61.8748125 119.62509375C55.6875 104.062875 45.9376875 88.6876875 32.90634375 73.875C28.78134375 69.1875 28.21884375 62.43778125 31.59375 57.18778125C34.21903125 53.06278125 38.53115625 50.8128750000001 43.21865625 50.8128750000001C44.53125 50.8128750000001 45.8439375 50.90615625 47.15653125 51.375375C74.71846875 59.43778125 139.12528125 88.0313437500001 140.90653125 179.719125C141.5623125 215.0625 115.68778125 245.43740625 82.03125 248.90615625C63.37509375 250.78125 44.81278125 244.687875 31.03125 232.31278125C17.25028125 219.84384375 9.375 202.03115625 9.375 183.46884375C9.375 152.5314375 31.31278125 125.4375 61.8748125 119.62509375zM231.6564375 248.90615625C213.0935625 250.78125 194.53125 244.687875 180.75028125 232.31278125C166.96875 219.84384375 159.09346875 202.03115625 159.09346875 183.46884375C159.09346875 152.5314375 181.03125 125.43759375 211.59384375 119.62509375C205.4060625 104.062875 195.65625 88.6876875 182.6248125 73.87509375C178.4998125 69.18759375 177.9373125 62.437875 181.31278125 57.187875C183.9375 53.062875 188.2501875 50.81296875 192.9376875 50.81296875C194.24971875 50.81296875 195.56240625 50.90625 196.875 51.37546875C224.4375 59.437875 288.84375 88.0314375 290.625 179.71921875V181.03125C290.625 215.8126875000001 265.0314375 245.43740625 231.6564375 248.90615625z" />
    <glyph glyph-name="016-forward"
      unicode="&#xF10F;"
      horiz-adv-x="300" d="M50 137.5C46.637375 137.5 43.7135 138.7425 41.228125 141.2275C38.74275 143.71375 37.5 146.6375 37.5 150C37.5 153.50875 38.74275 156.4325 41.228125 158.7725C43.7135 161.2575 46.637375 162.5 50 162.5H250C253.50875 162.5 256.4325 161.2575 258.7725 158.7725C261.2575 156.4325 262.5 153.50875 262.5 150C262.5 146.6375 261.2575 143.71375 258.7725 141.2275C256.4325 138.7425 253.50875 137.5 250 137.5zM171.2725 53.7275C169.07875 51.2425 166.155 50 162.5 50C159.1375 50 156.21375 51.2425 153.7275000000001 53.7275C151.2425 56.21375 150 59.1375 150 62.5C150 66.155 151.2425 69.07875 153.7275000000001 71.2725L239.9125000000001 157.45625C240.6437500000001 158.1875 241.1550000000001 157.09125 241.4475000000001 154.16625C241.74 151.38875 241.74 148.5374999999999 241.4475000000001 145.61375C241.1550000000001 142.8362499999999 240.6437500000001 141.8125 239.9125000000001 142.54375L153.7275000000001 228.728125C151.2425 231.06725 150 233.9912499999999 150 237.5S151.2425 243.93275 153.7275000000001 246.272C156.21375 248.75725 159.1375000000001 250 162.5 250C166.155 250 169.07875 248.75725 171.2725 246.272L257.45625 160.0875C260.23375 157.4562499999999 261.6225 154.09375 261.6225 150C261.6225 146.0524999999999 260.23375 142.69 257.45625 139.9124999999999z" />
    <glyph glyph-name="017-search"
      unicode="&#xF110;"
      horiz-adv-x="300" d="M168.7975640324394 37.5415074918062C96.3367888813758 37.5415074918062 37.5951280648787 96.2825222773024 37.5951280648787 168.7439434593668S96.3361428503749 299.9457333959266 168.7975640324394 299.9457333959266S300 241.2047186104304 300 168.7432974283659S241.258339183503 37.5415074918062 168.7975640324394 37.5415074918062zM168.7975640324394 262.4591385391948C117.0394983353935 262.4591385391948 75.0817229216106 220.5013631254119 75.0817229216106 168.7432974283659S117.0394983353935 75.0274563175372 168.7975640324394 75.0274563175372S262.5134051432682 116.98523173132 262.5134051432682 168.7432974283659S220.5549836984844 262.4591385391948 168.7975640324394 262.4591385391948zM18.8518306365128 0.0549126350743C13.8696395577702 0.025841240035 9.08125777929 1.9820231106823 5.5442380495032 5.4906174764307C-1.8056566474437 12.7804312902962 -1.8541089725092 24.6473747453562 5.4357048413563 31.997269442303C5.4718825774053 32.0334471783519 5.5080603134542 32.0696249144009 5.5442380495032 32.1058026504498L76.0184678728783 102.580032473825C83.6267749701749 109.9299271707718 95.7527768565854 109.7199670954877 103.1026715535323 102.1116599981911S110.242606175195 82.377351014484 102.6342990778984 75.0274563175372L32.1594232235224 5.4906174764307C28.6224034937356 1.9820231106823 23.8340217152554 0.025841240035 18.8518306365128 0.0549126350743z" />
    <glyph glyph-name="018-shopping-cart"
      unicode="&#xF111;"
      horiz-adv-x="300" d="M136.4636363636364 56.25C146.5545454545455 56.25 154.7454545454546 47.803125 154.7454545454546 37.396875S146.5545454545455 18.54375 136.4636363636364 18.54375S118.1818181818182 26.990625 118.1818181818182 37.396875S126.3727272727273 56.25 136.4636363636364 56.25zM215.9818181818182 56.25C226.0727272727273 56.25 234.2636363636364 47.803125 234.2636363636364 37.396875S226.0727272727273 18.54375 215.9818181818182 18.54375S197.7 26.990625 197.7 37.396875S205.8909090909091 56.25 215.9818181818182 56.25zM15.0727272727272 244.584375H40.9C45.9272727272727 244.584375 50.3454545454545 241.125 51.6909090909091 236.11875C51.6909090909091 236.11875 51.7 236.11875 51.7 236.109375C60.4 203.8125 79.2 134.025 87.9363636363636 101.60625C92.0363636363636 86.371875 105.4909090909091 75.834375 120.8090909090909 75.834375H231.1909090909091C246.8545454545455 75.834375 260.5090909090909 86.83125 264.3 102.50625C271.9909090909091 134.203125 287.2636363636364 197.2125 287.2636363636364 197.2125C288.1090909090909 200.709375 287.3454545454545 204.421875 285.1909090909091 207.2625C283.0363636363636 210.1125 279.7363636363637 211.771875 276.2363636363636 211.771875H118.1818181818182C111.9090909090909 211.771875 106.8181818181818 206.521875 106.8181818181818 200.053125S111.9090909090909 188.334375 118.1818181818182 188.334375H261.6818181818182L242.2454545454546 108.16875C240.9818181818182 102.9375 236.4181818181818 99.271875 231.1909090909091 99.271875H120.8090909090909C115.6909090909091 99.271875 111.2 102.796875 109.8272727272727 107.878125C109.8272727272727 107.8875 109.8272727272727 107.8875 109.8272727272727 107.8875C101.0909090909091 140.30625 82.2909090909091 210.09375 73.5909090909091 242.390625C69.5272727272728 257.53125 56.1454545454546 268.021875 40.9 268.021875H15.0727272727273C8.8 268.021875 3.7090909090909 262.771875 3.7090909090909 256.303125S8.8 244.584375 15.0727272727273 244.584375z" />
    <glyph glyph-name="019-check-1"
      unicode="&#xF112;"
      horiz-adv-x="300" d="M114.8754260664685 37.7107690647482C112.0117445750235 34.8246402877698 108.1046844532222 33.2143661870504 104.0461657841314 33.2143661870504S96.0805869932393 34.8246402877698 93.2169055017943 37.7107690647482L6.7314750345567 124.3789345323741C-2.2438250115189 133.3717402877698 -2.2438250115189 147.9541366906475 6.7314750345567 156.9300805755396L17.5607353168938 167.783273381295C26.5388406827518 176.7760791366907 41.0760214376119 176.7760791366907 50.0513214836875 167.783273381295L104.0461657841314 113.6803057553957L249.9480825563895 259.8696043165468C258.9261872042235 268.8624100719425 273.4773924039236 268.8624100719425 282.4386687231832 259.8696043165468L293.2679290055202 249.0164115107914C302.2432290515959 240.0236057553957 302.2432290515959 225.4440201438849 293.2679290055202 216.4652654676259zM114.8754260664685 37.7107690647482" />
    <glyph glyph-name="020-play"
      unicode="&#xF113;"
      horiz-adv-x="300" d="M233.275 174.8375L95.775 252.4125A29.28125 29.28125 0 0 1 66.33125 252.1875A28.3 28.3 0 0 1 52.08125 227.575V72.425A28.3 28.3 0 0 1 66.33125 47.8125A29.29375 29.29375 0 0 1 95.775 47.5875L233.275 125.1625A28.39375 28.39375 0 0 1 233.275 174.8375z" />
    <glyph glyph-name="021-play-1"
      unicode="&#xF114;"
      horiz-adv-x="300" d="M277.3491332839585 163.0794903765926L37.3498832816147 298.0790685029109C32.6998978128193 300.6890603466864 27.0299155315139 300.6290605341859 22.4399298752191 297.9590688779098C17.819944312674 295.2590773153834 14.9999531251465 290.3390926903354 14.9999531251465 284.9991093777832V14.9999531251465C14.9999531251465 9.6599698125943 17.819944312674 4.7399851875463 22.4399298752191 2.0399936250199C24.779922562742 0.6899978437567 27.3899144065175 0 29.9999062502929 0C32.5198983753176 0 35.0698904065925 0.6299980312562 37.3498832816147 1.9199940000187L277.3491332839585 136.9195721263371C282.0591185652545 139.5895637826132 284.9991093777832 144.5695482201618 284.9991093777832 149.9995312514649S282.0591185652545 160.4094987203165 277.3491332839585 163.0794903765926z" />
    <glyph glyph-name="022-link"
      unicode="&#xF115;"
      horiz-adv-x="300" d="M161.474543690651 92.6229537757998L115.5731230998381 46.7204512422506C115.5731230998381 46.7204512422506 115.5731230998381 46.7193692995142 115.5720411571017 46.7193692995142C115.5720411571017 46.7193692995142 115.5720411571017 46.7182873567778 115.5709592143653 46.7182873567778C96.5893558473595 27.7356020470356 65.7020546092564 27.7345201042993 46.7182873567778 46.7182873567778C37.5217740975696 55.9148006159861 32.4582820913232 68.1418354797875 32.4582820913232 81.145705228308C32.4582820913232 94.148493034092 37.5217740975696 106.3733640124207 46.7150415285687 115.569877271629C46.7161234713051 115.5709592143653 46.7172054140415 115.5720411571017 46.7182873567778 115.5731230998381L92.6197079475907 161.4756256333873C98.9566465545534 167.8136461830863 98.9566465545534 178.0899382931992 92.6186260048543 184.4268769001619C86.2816873978917 190.7638155071246 76.0053952877787 190.7638155071246 69.6673747380797 184.4268769001619L23.7659541472668 138.5243743666127C23.7627083190577 138.5211285384035 23.7594624908486 138.516800767458 23.7562166626394 138.5135549392489C8.4369894582713 123.1889180211989 0 102.8148543524753 0 81.145705228308C0 59.4711463904587 8.4402352864804 39.093836893526 23.7670360900032 23.7670360900032C39.5872027813141 7.9479513414287 60.3659130334429 0.0378679957731 81.145705228308 0.0378679957731C101.9254974231731 0.0378679957731 122.7052896180382 7.9479513414286 138.5232924238763 23.7670360900032C138.5232924238763 23.7670360900032 138.5232924238763 23.7681180327396 138.5232924238763 23.7681180327396C138.5243743666127 23.7681180327396 138.5243743666127 23.7691999754759 138.5243743666127 23.7691999754759L184.4257949574255 69.6717025090252C190.7627335643882 76.0086411159878 190.7627335643882 86.2849332261008 184.4247130146892 92.6229537757998C178.0888563504629 98.9598923827625 167.8136461830864 98.9598923827625 161.474543690651 92.6229537757998zM300 218.854294771692C300 240.5288536095413 291.5586827707832 260.906163106474 276.2318819672605 276.2329639099968C244.592630527375 307.8711334071459 193.1127131878001 307.8700514644095 161.4756256333873 276.2329639099968C161.474543690651 276.2308000245241 161.4723798051782 276.2297180817877 161.4712978624419 276.2275541963149L115.5709592143653 230.3282974909748C109.2329386646663 223.9913588840121 109.2329386646663 213.7139848311628 115.5709592143653 207.3770462242002C118.7410514319513 204.2069540066143 122.8935476541679 202.6229898405577 127.0471258191208 202.6229898405577C131.1996220413375 202.6229898405577 135.3542821490268 204.2080359493506 138.52221048114 207.3770462242002L184.4225491292165 253.2763029295403C184.4236310719528 253.278466815013 184.4257949574256 253.2795487577494 184.4279588428983 253.2817126432222C203.4095622099042 272.263316010228 234.2968634480073 272.2643979529643 253.2806307004859 253.2817126432222C262.4760620169577 244.085199384014 267.5417179086769 231.8581645202125 267.5417179086769 218.854294771692C267.5417179086769 205.851506965908 262.4782259024305 193.6266359875793 253.283876528695 184.430122728371C253.2827945859586 184.4290407856347 253.2817126432222 184.4279588428983 253.2806307004859 184.4268769001619L207.379210109673 138.5243743666127C201.0422715027104 132.18743575965 201.0422715027104 121.9111436495371 207.3802920524094 115.5731230998381C210.5493023272589 112.4041128249885 214.7028804922119 110.8190667161956 218.8553767144285 110.8190667161956C223.0089548793815 110.8190667161956 227.1625330443345 112.4041128249885 230.331543319184 115.5731230998381L276.2329639099969 161.4756256333873C276.236209738206 161.4788714615964 276.2394555664152 161.4831992325419 276.2427013946243 161.4864450607511C291.5619285989924 176.8110819788011 300 197.1851456475247 300 218.854294771692zM92.6218718330635 92.6229537757998C95.790882107913 89.4539435009503 99.944460272866 87.8688973921574 104.0969564950826 87.8688973921574C108.2505346600356 87.8688973921574 112.4041128249886 89.4539435009503 115.5731230998381 92.6229537757998L207.3781281669366 184.4279588428983C213.7161487166356 190.764897449861 213.7161487166356 201.0411895599739 207.3781281669366 207.3792101096729C201.0411895599739 213.7161487166356 190.764897449861 213.7161487166356 184.426876900162 207.3792101096729L92.6218718330635 115.5752869853108C86.2838512833644 109.2361844928754 86.2838512833644 98.9598923827625 92.6218718330635 92.6229537757998z" />
    <glyph glyph-name="023-info"
      unicode="&#xF116;"
      horiz-adv-x="300" d="M162.4992369140625 225C162.4992369140625 218.096923828125 156.903076171875 212.5007630859375 150 212.5007630859375S137.5007630859375 218.096923828125 137.5007630859375 225S143.096923828125 237.4992369140625 150 237.4992369140625S162.4992369140625 231.903076171875 162.4992369140625 225zM162.4992369140625 225M150 62.5007630859375C144.8249818359375 62.5007630859375 140.625 66.700744921875 140.625 71.8757630859375V168.75H128.1257630859375C122.950744921875 168.75 118.7507630859375 172.9499818359375 118.7507630859375 178.125S122.950744921875 187.5 128.1257630859375 187.5H150C155.1750181640625 187.5 159.375 183.3000181640625 159.375 178.125V71.8757630859375C159.375 66.700744921875 155.1750181640625 62.5007630859375 150 62.5007630859375zM150 62.5007630859375M150 0C67.286682421875 0 0 67.286682421875 0 150S67.286682421875 300 150 300S300 232.713317578125 300 150S232.713317578125 0 150 0zM150 281.25C77.6252748046875 281.25 18.75 222.3747251953125 18.75 150S77.6252748046875 18.75 150 18.75S281.25 77.6252748046875 281.25 150S222.3747251953125 281.25 150 281.25zM150 281.25M178.125 62.5007630859375H121.875C116.6999818359375 62.5007630859375 112.5 66.700744921875 112.5 71.8757630859375S116.6999818359375 81.2507630859375 121.875 81.2507630859375H178.125C183.3000181640625 81.2507630859375 187.5 77.05078125 187.5 71.8757630859375S183.3000181640625 62.5007630859375 178.125 62.5007630859375zM178.125 62.5007630859375" />
    <glyph glyph-name="024-remove"
      unicode="&#xF117;"
      horiz-adv-x="300" d="M150 0C67.286682421875 0 0 67.286682421875 0 150S67.286682421875 300 150 300S300 232.713317578125 300 150S232.713317578125 0 150 0zM150 281.25C77.6252748046875 281.25 18.75 222.3747251953125 18.75 150S77.6252748046875 18.75 150 18.75S281.25 77.6252748046875 281.25 150S222.3747251953125 281.25 150 281.25zM150 281.25M103.60107421875 94.22607421875C101.20010390625 94.22607421875 98.79913359375 95.13702421875 96.974944921875 96.974944921875C93.312835546875 100.637054296875 93.312835546875 106.5742494140625 96.974944921875 110.2363587890625L189.7865296875 203.050231640625C193.450927734375 206.712341015625 199.388122265625 206.712341015625 203.050231640625 203.050231640625S206.712341015625 193.450927734375 203.050231640625 189.7865296875L110.2363587890625 96.974944921875C108.3869935546875 95.13702421875 105.9883119140625 94.22607421875 103.60107421875 94.22607421875zM103.60107421875 94.22607421875M196.39892578125 94.22607421875C194.000244140625 94.22607421875 191.599273828125 95.13702421875 189.77508515625 96.974944921875L96.9635009765625 189.77508515625C93.2991029296875 193.43719453125 93.2991029296875 199.3743896484375 96.9635009765625 203.0364990234375C100.6256103515625 206.7008970703125 106.56280546875 206.7008970703125 110.22491484375 203.0364990234375L203.0364990234375 110.22491484375C206.7008970703125 106.56280546875 206.7008970703125 100.6256103515625 203.0364990234375 96.9635009765625C201.20086640625 95.13702421875 198.79989609375 94.22607421875 196.39892578125 94.22607421875zM196.39892578125 94.22607421875" />
    <glyph glyph-name="025-check-2"
      unicode="&#xF118;"
      horiz-adv-x="300" d="M150 0C67.286682421875 0 0 67.286682421875 0 150S67.286682421875 300 150 300S300 232.713317578125 300 150S232.713317578125 0 150 0zM150 281.25C77.6252748046875 281.25 18.75 222.3747251953125 18.75 150S77.6252748046875 18.75 150 18.75S281.25 77.6252748046875 281.25 150S222.3747251953125 281.25 150 281.25zM150 281.25M135.9375 100.0007630859375C133.5365296875 100.0007630859375 131.137848046875 100.9117125 129.311370703125 102.7496337890625L88.6871337890625 143.373870703125C85.0250244140625 147.03826875 85.0250244140625 152.9754638671875 88.6871337890625 156.6375732421875S98.28643828125 160.2996826171875 101.950836328125 156.6375732421875L135.9489439453125 122.6371763671875L210.57586640625 197.26181015625C214.23797578125 200.92391953125 220.1751708984375 200.92391953125 223.8372802734375 197.26181015625S227.4993896484375 187.66250625 223.8372802734375 184.000396875L142.5865171875 102.7496337890625C140.737151953125 100.9117125 138.3384703125 100.0007630859375 135.9375 100.0007630859375zM135.9375 100.0007630859375" />
    <glyph glyph-name="026-plus"
      unicode="&#xF119;"
      horiz-adv-x="300" d="M150 0C67.286682421875 0 0 67.286682421875 0 150S67.286682421875 300 150 300S300 232.713317578125 300 150S232.713317578125 0 150 0zM150 281.25C77.6252748046875 281.25 18.75 222.3747251953125 18.75 150S77.6252748046875 18.75 150 18.75S281.25 77.6252748046875 281.25 150S222.3747251953125 281.25 150 281.25zM150 281.25M215.625 140.625H84.375C79.1999818359375 140.625 75 144.8249818359375 75 150S79.1999818359375 159.375 84.375 159.375H215.625C220.8000181640625 159.375 225 155.1750181640625 225 150S220.8000181640625 140.625 215.625 140.625zM215.625 140.625M150 75C144.8249818359375 75 140.625 79.1999818359375 140.625 84.375V215.625C140.625 220.8000181640625 144.8249818359375 225 150 225S159.375 220.8000181640625 159.375 215.625V84.375C159.375 79.1999818359375 155.1750181640625 75 150 75zM150 75" />
    <glyph glyph-name="027-question"
      unicode="&#xF11A;"
      horiz-adv-x="300" d="M162.4992369140625 75C162.4992369140625 68.096923828125 156.903076171875 62.5007630859375 150 62.5007630859375S137.5007630859375 68.096923828125 137.5007630859375 75S143.096923828125 87.4992369140625 150 87.4992369140625S162.4992369140625 81.903076171875 162.4992369140625 75zM162.4992369140625 75M150 0C67.286682421875 0 0 67.286682421875 0 150S67.286682421875 300 150 300S300 232.713317578125 300 150S232.713317578125 0 150 0zM150 281.25C77.6252748046875 281.25 18.75 222.3747251953125 18.75 150S77.6252748046875 18.75 150 18.75S281.25 77.6252748046875 281.25 150S222.3747251953125 281.25 150 281.25zM150 281.25M150 115.6242369140625C144.8249818359375 115.6242369140625 140.625 119.82421875 140.625 124.9992369140625V137.624358984375C140.625 149.52392578125 148.1758119140625 160.1875306640625 159.4001771484375 164.149475390625C174.33700546875 169.411468359375 184.3757630859375 185.325622265625 184.3757630859375 196.875C184.3757630859375 215.8378599609375 168.9628599609375 231.2507630859375 150 231.2507630859375S115.6242369140625 215.8378599609375 115.6242369140625 196.875C115.6242369140625 191.6999818359375 111.424255078125 187.5 106.2492369140625 187.5S96.8742369140625 191.6999818359375 96.8742369140625 196.875C96.8742369140625 226.1627197265625 120.700836328125 250.0007630859375 150 250.0007630859375S203.1257630859375 226.1627197265625 203.1257630859375 196.875C203.1257630859375 176.023864453125 186.6622921875 153.88641328125 165.63720703125 146.461487109375C161.888122265625 145.14999375 159.375 141.5885923828125 159.375 137.6129150390625V124.9992369140625C159.375 119.82421875 155.1750181640625 115.6242369140625 150 115.6242369140625zM150 115.6242369140625" />
    <glyph glyph-name="028-warning"
      unicode="&#xF11B;"
      horiz-adv-x="300" d="M162.4992369140625 75C162.4992369140625 68.096923828125 156.903076171875 62.5007630859375 150 62.5007630859375S137.5007630859375 68.096923828125 137.5007630859375 75S143.096923828125 87.4992369140625 150 87.4992369140625S162.4992369140625 81.903076171875 162.4992369140625 75zM162.4992369140625 75M150 112.5C144.8249818359375 112.5 140.625 116.6999818359375 140.625 121.875V228.1242369140625C140.625 233.299255078125 144.8249818359375 237.4992369140625 150 237.4992369140625S159.375 233.299255078125 159.375 228.1242369140625V121.875C159.375 116.6999818359375 155.1750181640625 112.5 150 112.5zM150 112.5M150 0C67.286682421875 0 0 67.286682421875 0 150S67.286682421875 300 150 300S300 232.713317578125 300 150S232.713317578125 0 150 0zM150 281.25C77.6252748046875 281.25 18.75 222.3747251953125 18.75 150S77.6252748046875 18.75 150 18.75S281.25 77.6252748046875 281.25 150S222.3747251953125 281.25 150 281.25zM150 281.25" />
    <glyph glyph-name="029-down-arrow-1"
      unicode="&#xF11C;"
      horiz-adv-x="300" d="M295.2048390637322 223.7884047837787L285.3779299018691 233.6836071837983C282.2852218310718 236.7738762103757 278.1705542321482 238.4763290758462 273.7729575037196 238.4763290758462C269.3777998195107 238.4763290758462 265.2582541321475 236.7738762103757 262.1655460613501 233.6836071837983L150.0670737160465 121.5802567500549L37.8393320270896 233.8079984390117C34.7515020447321 236.8982674655892 30.6319563573688 238.5982812868397 26.2367986731599 238.5982812868397S17.7196562573679 236.8982674655892 14.6293872307905 233.8079984390117L4.8000390247075 223.973772144489C-1.6000130082358 217.5785981999854 -1.6000130082358 207.1614403369133 4.8000390247075 200.7662663924097L138.4206375661591 66.6651761396434C141.5084675485166 63.5773461572858 145.6231351474402 61.4017187131603 150.057317539167 61.4017187131603H150.1085374677843C154.506134196213 61.4017187131603 158.6208017951365 63.5797852015057 161.7086317774941 66.6651761396434L295.2048390637322 200.4028488036488C298.2975471345295 203.4906787860064 299.9951219115602 207.7297376401434 300 212.1248953243522C300 216.5224920527809 298.2975471345296 220.703013845641 295.2048390637322 223.7884047837787z" />
    <glyph glyph-name="030-close-button"
      unicode="&#xF11D;"
      horiz-adv-x="300" d="M300 270L270 300L150 180L30 300L0 270L120 150L0 30L30 0L150 120L270 0L300 30L180 150z" />
    <glyph glyph-name="031-settings-1"
      unicode="&#xF11E;"
      horiz-adv-x="300" d="M56.25 261.8625V293.7498046875C56.25 297.1998046875 53.4498046875 300 49.9998046875 300S43.7501953125 297.1998046875 43.7501953125 293.7498046875V261.8625C22.6001953125 258.7998046875 6.2501953125 240.7248046875 6.2501953125 218.7498046875C6.2501953125 196.7748046875 22.6001953125 178.6998046875 43.7501953125 175.637109375V6.249609375C43.7501953125 2.799609375 46.550390625 -0.0005859375 50.000390625 -0.0005859375S56.25 2.8001953125 56.25 6.2501953125V175.6376953125C77.4 178.700390625 93.75 196.775390625 93.75 218.750390625C93.75 240.7248046875 77.4 258.7998046875 56.25 261.8625zM49.9998046875 187.5C32.775 187.5 18.75 201.525 18.75 218.7498046875S32.775 249.999609375 49.9998046875 249.999609375S81.249609375 235.974609375 81.249609375 218.7498046875S67.2251953125 187.5 49.9998046875 187.5zM156.2501953125 149.3625V293.7498046875C156.2501953125 297.1998046875 153.45 300 150 300C146.55 300 143.7498046875 297.1998046875 143.7498046875 293.7498046875V149.3625C122.5998046875 146.2998046875 106.2498046875 128.2248046875001 106.2498046875 106.2498046875C106.2498046875 84.2748046875 122.5998046875 66.1998046875 143.7498046875 63.137109375V6.249609375C143.7498046875 2.799609375 146.55 -0.0005859375 150 -0.0005859375C153.45 -0.0005859375 156.2501953125 2.799609375 156.2501953125 6.249609375V63.137109375C177.4001953125 66.1998046875 193.7501953125 84.2748046875 193.7501953125 106.2498046875C193.7501953125 128.2248046875 177.4001953125 146.2998046875 156.2501953125 149.3625zM150 75C132.7751953125 75 118.7501953125 89.025 118.7501953125 106.2498046875S132.7751953125 137.499609375 150 137.499609375S181.2498046875 123.474609375 181.2498046875 106.2498046875S167.2248046875 75 150 75zM256.2498046875 224.3625V293.7498046875C256.2498046875 297.1998046875 253.4501953125 300 250.0001953125 300C246.5501953125 300 243.75 297.1998046875 243.75 293.7498046875V224.3625C222.6 221.2998046875 206.25 203.2248046875 206.25 181.2498046875C206.25 159.2748046875 222.6 141.1998046875 243.75 138.137109375V6.249609375C243.75 2.799609375 246.5501953125 -0.0005859375 250.0001953125 -0.0005859375C253.4501953125 -0.0005859375 256.250390625 2.799609375 256.250390625 6.249609375V138.1376953125C277.400390625 141.200390625 293.750390625 159.275390625 293.750390625 181.250390625C293.7498046875 203.2248046875 277.3998046875 221.2998046875 256.2498046875 224.3625zM250.0001953125 150C232.775390625 150 218.750390625 164.025 218.750390625 181.2498046875S232.775390625 212.499609375 250.0001953125 212.499609375S281.25 198.4751953125 281.25 181.2498046875S267.225 150 250.0001953125 150z" />
    <glyph glyph-name="032-briefcase"
      unicode="&#xF11F;"
      horiz-adv-x="300" d="M243.496875 234.375H225V251.625C225 273.13125 207.50625 290.625 186.009375 290.625H113.990625C92.49375 290.625 75 273.13125 75 251.625V234.375H56.503125C30.515625 234.375 9.375 213.234375 9.375 187.246875V56.5125C9.375 30.515625 30.515625 9.375 56.503125 9.375H243.4875C269.484375 9.375 290.625 30.515625 290.625 56.503125V187.246875C290.625 213.234375 269.484375 234.375 243.496875 234.375zM93.75 251.625C93.75 262.790625 102.834375 271.875 113.990625 271.875H186.009375C197.165625 271.875 206.25 262.790625 206.25 251.625V234.375H93.75zM56.503125 215.625H84.375H215.625H243.496875C259.14375 215.625 271.875 202.89375 271.875 187.246875V159.375H187.5H112.5H28.125V187.246875C28.125 202.89375 40.85625 215.625 56.503125 215.625zM178.125 140.625C178.125 125.11875 165.50625 112.5 150 112.5S121.875 125.11875 121.875 140.625zM243.496875 28.125H56.503125C40.85625 28.125 28.125 40.85625 28.125 56.503125V140.625H103.125C103.125 114.778125 124.153125 93.75 150 93.75S196.875 114.778125 196.875 140.625H271.875V56.503125C271.875 40.85625 259.14375 28.125 243.496875 28.125z" />
    <glyph glyph-name="033-chat-1"
      unicode="&#xF120;"
      horiz-adv-x="300" d="M150 9.375C146.86875 9.375 143.94375 10.940625 142.2 13.546875L107.484375 65.625H67.734375C35.55 65.625 9.375 91.8 9.375 123.984375V232.265625C9.375 264.4500000000001 35.55 290.625 67.734375 290.625H232.275C264.45 290.625 290.625 264.4500000000001 290.625 232.265625V123.975C290.625 91.8 264.45 65.625 232.265625 65.625H192.515625L157.809375 13.55625C156.065625 10.9406250000001 153.140625 9.3750000000001 150 9.3750000000001zM67.734375 271.875C45.9 271.875 28.125 254.109375 28.125 232.265625V123.975C28.125 102.140625 45.9 84.375 67.734375 84.375H112.5C115.63125 84.375 118.55625 82.809375 120.3 80.203125L150 35.653125L179.690625 80.19375C181.434375 82.809375 184.359375 84.375 187.5 84.375H232.265625C254.1 84.375 271.875 102.140625 271.875 123.984375V232.265625C271.875 254.1093750000001 254.1 271.875 232.265625 271.875zM225 150C212.071875 150 201.5625 160.51875 201.5625 173.4375S212.071875 196.875 225 196.875S248.4375 186.35625 248.4375 173.4375S237.928125 150 225 150zM225 178.125C222.421875 178.125 220.3125 176.025 220.3125 173.4375S222.421875 168.75 225 168.75S229.6875 170.85 229.6875 173.4375S227.578125 178.125 225 178.125zM150 150C137.071875 150 126.5625 160.51875 126.5625 173.4375S137.071875 196.875 150 196.875S173.4375 186.35625 173.4375 173.4375S162.928125 150 150 150zM150 178.125C147.421875 178.125 145.3125 176.025 145.3125 173.4375S147.421875 168.75 150 168.75S154.6875 170.85 154.6875 173.4375S152.578125 178.125 150 178.125zM75 150C62.071875 150 51.5625 160.51875 51.5625 173.4375S62.071875 196.875 75 196.875S98.4375 186.35625 98.4375 173.4375S87.928125 150 75 150zM75 178.125C72.421875 178.125 70.3125 176.025 70.3125 173.4375S72.421875 168.75 75 168.75S79.6875 170.85 79.6875 173.4375S77.578125 178.125 75 178.125z" />
    <glyph glyph-name="034-copy"
      unicode="&#xF121;"
      horiz-adv-x="300" d="M223.275 9.375H76.725C39.590625 9.375 9.375 39.590625 9.375 76.725V223.275C9.375 260.409375 39.590625 290.625 76.725 290.625H223.275C260.409375 290.625 290.625 260.409375 290.625 223.275V76.725C290.625 39.590625 260.409375 9.375 223.275 9.375zM76.725 271.875C49.93125 271.875 28.125 250.06875 28.125 223.275V76.725C28.125 49.93125 49.93125 28.1249999999999 76.725 28.1249999999999H223.275C250.06875 28.1249999999999 271.875 49.93125 271.875 76.725V223.275C271.875 250.06875 250.06875 271.875 223.275 271.875zM200.86875 234.375H136.621875C123.328125 234.375 112.5 223.546875 112.5 210.24375V196.875H99.13125C85.828125 196.875 75 186.046875 75 172.74375V89.746875C75 76.453125 85.828125 65.625 99.13125 65.625H163.378125C176.671875 65.625 187.5 76.453125 187.5 89.75625V103.125H200.86875C214.171875 103.125 225 113.953125 225 127.25625V210.24375C225 223.546875 214.171875 234.375 200.86875 234.375zM168.75 89.75625C168.75 86.784375 166.340625 84.375 163.36875 84.375H99.121875C96.159375 84.375 93.75 86.784375 93.75 89.75625V172.753125C93.75 175.715625 96.159375 178.125 99.13125 178.125H163.378125C166.340625 178.125 168.75 175.715625 168.75 172.74375zM206.25 127.25625C206.25 124.284375 203.840625 121.875 200.86875 121.875H187.5V172.74375C187.5 186.046875 176.671875 196.875 163.36875 196.875H131.25V210.24375C131.25 213.215625 133.659375 215.625 136.63125 215.625H200.878125C203.840625 215.625 206.25 213.215625 206.25 210.24375z" />
    <glyph glyph-name="035-data"
      unicode="&#xF122;"
      horiz-adv-x="300" d="M223.275 290.625H76.725C39.590625 290.625 9.375 260.409375 9.375 223.275V76.725C9.375 39.590625 39.590625 9.3749999999999 76.725 9.3749999999999H223.275C260.409375 9.3749999999999 290.625 39.5906249999999 290.625 76.725V223.275C290.625 260.409375 260.409375 290.625 223.275 290.625zM271.875 76.725C271.875 49.93125 250.06875 28.125 223.275 28.125H76.725C49.93125 28.125 28.125 49.93125 28.125 76.725V223.275C28.125 250.06875 49.93125 271.875 76.725 271.875H223.275C250.06875 271.875 271.875 250.06875 271.875 223.275zM215.625 98.4375V173.4375C215.625 178.6125 211.425 182.8125 206.25 182.8125S196.875 178.6125 196.875 173.4375V98.4375H159.375V210.9375C159.375 216.1125 155.175 220.3125 150 220.3125S140.625 216.1125 140.625 210.9375V98.4375H103.125V154.6875C103.125 159.8625 98.925 164.0625 93.75 164.0625S84.375 159.8625 84.375 154.6875V98.4375C79.2 98.4375 75 94.2375 75 89.0625S79.2 79.6875 84.375 79.6875H215.625C220.8 79.6875 225 83.8875 225 89.0625S220.8 98.4375 215.625 98.4375z" />
    <glyph glyph-name="036-credit-card"
      unicode="&#xF123;"
      horiz-adv-x="300" d="M255.0375 46.875H44.9625C25.340625 46.875 9.375 62.840625 9.375 82.4625V217.5375C9.375 237.159375 25.340625 253.125 44.9625 253.125H255.0375C274.659375 253.125 290.625 237.159375 290.625 217.5375V82.4625C290.625 62.840625 274.659375 46.875 255.0375 46.875zM44.9625 234.375C35.68125 234.375 28.125 226.81875 28.125 217.5375V82.4625C28.125 73.18125 35.68125 65.625 44.9625 65.625H255.0375C264.31875 65.625 271.875 73.18125 271.875 82.4625V217.5375C271.875 226.81875 264.31875 234.375 255.0375 234.375zM93.75 112.5H56.25C51.075 112.5 46.875 116.7 46.875 121.875S51.075 131.25 56.25 131.25H93.75C98.925 131.25 103.125 127.05 103.125 121.875S98.925 112.5 93.75 112.5zM243.75 159.375H206.25C201.075 159.375 196.875 163.575 196.875 168.75V206.25C196.875 211.425 201.075 215.625 206.25 215.625H243.75C248.925 215.625 253.125 211.425 253.125 206.25V168.75C253.125 163.575 248.925 159.375 243.75 159.375zM215.625 178.125H234.375V196.875H215.625zM150 84.375H56.25C51.075 84.375 46.875 88.575 46.875 93.75S51.075 103.125 56.25 103.125H150C155.175 103.125 159.375 98.925 159.375 93.75S155.175 84.375 150 84.375z" />
    <glyph glyph-name="037-file"
      unicode="&#xF124;"
      horiz-adv-x="300" d="M267.571875 131.25H262.5V267.35625C262.5 280.190625 252.065625 290.625 239.23125 290.625H60.76875C47.934375 290.625 37.5 280.190625 37.5 267.35625V131.25H32.428125C19.715625 131.25 9.375 120.909375 9.375 108.196875V32.428125C9.375 19.715625 19.715625 9.375 32.428125 9.375H267.571875C280.284375 9.375 290.625 19.715625 290.625 32.428125V108.196875C290.625 120.909375 280.284375 131.25 267.571875 131.25zM56.25 267.35625C56.25 269.85 58.275 271.875 60.76875 271.875H239.23125C241.725 271.875 243.75 269.85 243.75 267.35625V131.25H231.75C220.734375 131.25 211.209375 124.1625 208.05 113.615625L199.275 84.375H100.725L91.95 113.615625C88.790625 124.1625 79.265625 131.25 68.25 131.25H56.25zM271.875 32.428125C271.875 30.05625 269.94375 28.125 267.571875 28.125H32.428125C30.05625 28.125 28.125 30.05625 28.125 32.428125V108.196875C28.125 110.56875 30.05625 112.5 32.428125 112.5H68.25C70.921875 112.5 73.228125 110.784375 73.9875 108.234375L84.759375 72.309375C85.959375 68.34375 89.615625 65.625 93.75 65.625H206.25C210.384375 65.625 214.040625 68.34375 215.23125 72.309375L226.003125 108.234375C226.771875 110.784375 229.078125 112.5 231.75 112.5H267.571875C269.94375 112.5 271.875 110.56875 271.875 108.196875zM103.125 150H196.875C202.05 150 206.25 154.2 206.25 159.375S202.05 168.75 196.875 168.75H103.125C97.95 168.75 93.75 164.55 93.75 159.375S97.95 150 103.125 150zM103.125 187.5H196.875C202.05 187.5 206.25 191.7 206.25 196.875S202.05 206.25 196.875 206.25H103.125C97.95 206.25 93.75 202.05 93.75 196.875S97.95 187.5 103.125 187.5zM196.875 225H103.125C97.95 225 93.75 229.2 93.75 234.375S97.95 243.75 103.125 243.75H196.875C202.05 243.75 206.25 239.55 206.25 234.375S202.05 225 196.875 225z" />
    <glyph glyph-name="038-user-3"
      unicode="&#xF125;"
      horiz-adv-x="300" d="M223.275 290.625H76.725C39.590625 290.625 9.375 260.409375 9.375 223.275V76.725C9.375 39.590625 39.590625 9.3749999999999 76.725 9.3749999999999H223.275C260.409375 9.3749999999999 290.625 39.5906249999999 290.625 76.725V223.275C290.625 260.409375 260.409375 290.625 223.275 290.625zM28.125 223.275C28.125 250.06875 49.93125 271.875 76.725 271.875H223.275C250.06875 271.875 271.8750000000001 250.06875 271.8750000000001 223.275V76.725C271.8750000000001 74.315625 271.5000000000001 72 271.1625 69.675C243.1125 108.075 198.290625 131.25 150 131.25S56.8875 108.075 28.8375 69.675C28.5 72 28.125 74.315625 28.125 76.725zM223.275 28.125H76.725C60.4875 28.125 46.1625 36.20625 37.33125 48.478125C61.03125 88.078125 103.678125 112.5 150 112.5S238.9687500000001 88.078125 262.659375 48.478125C253.8375 36.20625 239.5125 28.125 223.275 28.125zM150 150C175.846875 150 196.875 171.028125 196.875 196.875S175.846875 243.75 150 243.75S103.125 222.721875 103.125 196.875S124.153125 150 150 150zM150 225C165.50625 225 178.125 212.38125 178.125 196.875S165.50625 168.75 150 168.75S121.875 181.36875 121.875 196.875S134.49375 225 150 225z" />
    <glyph glyph-name="039-timer"
      unicode="&#xF126;"
      horiz-adv-x="300" d="M231.1875 9.375H68.8125C56.71875 9.375 46.875 19.21875 46.875 31.3125V65.625C46.875 67.70625 47.56875 69.73125 48.84375 71.38125L109.996875 150L48.84375 228.61875C47.56875 230.26875 46.875 232.29375 46.875 234.375V268.6875C46.875 280.78125 56.71875 290.625 68.8125 290.625H231.1875C243.28125 290.625 253.125 280.78125 253.125 268.6875V234.375C253.125 232.29375 252.43125 230.26875 251.146875 228.61875L190.0031250000001 150L251.146875 71.38125C252.43125 69.73125 253.125 67.70625 253.125 65.625V31.3125C253.125 19.21875 243.28125 9.375 231.1875 9.375zM65.625 62.409375V31.3125C65.625 29.55 67.05 28.125 68.8125 28.125H231.1875C232.95 28.125 234.375 29.55 234.375 31.3125V62.409375L170.728125 144.24375C168.09375 147.628125 168.09375 152.371875 170.728125 155.75625L234.375 237.590625V268.6875C234.375 270.45 232.95 271.875 231.1875 271.875H68.8125C67.05 271.875 65.625 270.45 65.625 268.6875V237.590625L129.28125 155.75625C131.915625 152.371875 131.915625 147.628125 129.28125 144.24375zM187.5 46.875H112.5C107.325 46.875 103.125 51.075 103.125 56.25S107.325 65.625 112.5 65.625H187.5C192.684375 65.625 196.875 61.425 196.875 56.25S192.684375 46.875 187.5 46.875zM187.5 234.375H112.5C107.325 234.375 103.125 238.575 103.125 243.75S107.325 253.125 112.5 253.125H187.5C192.684375 253.125 196.875 248.925 196.875 243.75S192.684375 234.375 187.5 234.375z" />
    <glyph glyph-name="040-notification-bell"
      unicode="&#xF127;"
      horiz-adv-x="300" d="M223.265625 9.375H76.734375C39.590625 9.375 9.375 39.590625 9.375 76.725V223.275C9.375 260.409375 39.590625 290.625 76.734375 290.625H223.275C260.409375 290.625 290.6250000000001 260.409375 290.6250000000001 223.275V76.725C290.6250000000001 39.590625 260.4093750000001 9.375 223.2656250000001 9.375zM76.734375 271.875C49.93125 271.875 28.125 250.06875 28.125 223.275V76.725C28.125 49.93125 49.93125 28.1249999999999 76.734375 28.1249999999999H223.275C250.06875 28.1249999999999 271.8750000000001 49.93125 271.8750000000001 76.725V223.275C271.8750000000001 250.06875 250.06875 271.875 223.2656250000001 271.875zM200.803125 93.75H99.196875C85.85625 93.75 75 104.60625 75 117.95625V159.375C75 200.728125 108.646875 234.375 150 234.375S225 200.728125 225 159.375V117.95625C225 104.60625 214.14375 93.75 200.803125 93.75zM150 215.625C118.978125 215.625 93.75 190.396875 93.75 159.375V117.95625C93.75 114.946875 96.196875 112.5 99.196875 112.5H200.803125C203.803125 112.5 206.25 114.946875 206.25 117.95625V159.375C206.25 190.396875 181.021875 215.625 150 215.625zM168.75 65.625H131.25C126.065625 65.625 121.875 69.825 121.875 75S126.065625 84.375 131.25 84.375H168.75C173.934375 84.375 178.125 80.175 178.125 75S173.934375 65.625 168.75 65.625z" />
    <glyph glyph-name="041-shop"
      unicode="&#xF128;"
      horiz-adv-x="300" d="M223.265625 9.375H76.734375C39.590625 9.375 9.375 39.590625 9.375 76.725V223.275C9.375 260.409375 39.590625 290.625 76.734375 290.625H223.275C260.409375 290.625 290.6250000000001 260.409375 290.6250000000001 223.275V76.725C290.6250000000001 39.590625 260.4093750000001 9.375 223.2656250000001 9.375zM76.734375 271.875C49.93125 271.875 28.125 250.06875 28.125 223.275V76.725C28.125 49.93125 49.93125 28.1249999999999 76.734375 28.1249999999999H223.275C250.06875 28.1249999999999 271.8750000000001 49.93125 271.8750000000001 76.725V223.275C271.8750000000001 250.06875 250.06875 271.875 223.2656250000001 271.875zM203.475 126.5625H121.096875C113.85 126.5625 107.26875 130.846875 104.334375 137.465625L71.68125 210.9375H59.015625C53.86875 210.9375 49.640625 215.165625 49.640625 220.3125S53.86875 229.6875 59.015625 229.6875H77.765625C81.478125 229.6875 84.825 227.503125 86.334375 224.11875L121.471875 145.06875L203.475 145.303125L231.6375 202.14375L115.265625 201.5625C110.08125 201.5625 105.890625 205.7625 105.890625 210.9375S110.08125 220.3125 115.265625 220.3125H232.003125C232.575 220.3125 242.334375 220.134375 247.603125 211.6125S248.6625 194.278125 248.409375 193.7625L219.88125 136.70625C216.75 130.453125 210.46875 126.5625 203.475 126.5625zM204.328125 70.3125C191.4 70.3125 180.890625 80.83125 180.890625 93.75S191.4 117.1875 204.328125 117.1875S227.7656250000001 106.66875 227.7656250000001 93.75S217.25625 70.3125 204.328125 70.3125zM204.328125 98.4375C201.75 98.4375 199.640625 96.3375 199.640625 93.75S201.75 89.0625 204.328125 89.0625S209.015625 91.1625 209.015625 93.75S206.90625 98.4375 204.328125 98.4375zM129.328125 70.3125C116.4 70.3125 105.890625 80.83125 105.890625 93.75S116.4 117.1875 129.328125 117.1875S152.765625 106.66875 152.765625 93.75S142.25625 70.3125 129.328125 70.3125zM129.328125 98.4375C126.75 98.4375 124.640625 96.3375 124.640625 93.75S126.75 89.0625 129.328125 89.0625S134.015625 91.1625 134.015625 93.75S131.90625 98.4375 129.328125 98.4375zM190.265625 164.0625H134.015625C128.83125 164.0625 124.640625 168.2625 124.640625 173.4375S128.83125 182.8125 134.015625 182.8125H190.265625C195.45 182.8125 199.640625 178.6125 199.640625 173.4375S195.45 164.0625 190.265625 164.0625z" />
    <glyph glyph-name="042-smartwatch"
      unicode="&#xF129;"
      horiz-adv-x="300" d="M213.99375 243.459375L206.0625 283.0875C205.190625 287.475 201.346875 290.625 196.875 290.625H103.125C98.653125 290.625 94.809375 287.475 93.9375 283.0875L86.00625 243.459375C69.375 241.978125 56.25 228.13125 56.25 211.125V88.875C56.25 71.86875 69.375 58.021875 86.00625 56.540625L93.928125 16.9125C94.809375 12.525 98.653125 9.375 103.125 9.375H196.875C201.346875 9.375 205.190625 12.525 206.0625 16.9125L213.984375 56.540625C230.625 58.021875 243.75 71.86875 243.75 88.875V211.125C243.75 228.13125 230.625 241.978125 213.99375 243.459375zM110.8125 271.875H189.1875L194.8125 243.75H105.1875zM189.1875 28.125H110.8125L105.1875 56.25H194.821875zM225 88.875C225 81.225 218.775 75 211.125 75H206.25H93.75H88.875C81.225 75 75 81.225 75 88.875V211.125C75 218.775 81.225 225 88.875 225H93.75H206.25H211.125C218.775 225 225 218.775 225 211.125zM150 145.3125C165.50625 145.3125 178.125 157.93125 178.125 173.4375S165.50625 201.5625 150 201.5625S121.875 188.94375 121.875 173.4375S134.49375 145.3125 150 145.3125zM150 182.8125C155.165625 182.8125 159.375 178.603125 159.375 173.4375S155.165625 164.0625 150 164.0625S140.625 168.271875 140.625 173.4375S144.834375 182.8125 150 182.8125zM173.184375 135.9375H126.815625C113.746875 135.9375 103.125 125.315625 103.125 112.246875V107.8125C103.125 102.665625 107.353125 98.4375 112.5 98.4375S121.875 102.665625 121.875 107.8125V112.246875C121.875 114.975 124.0875 117.1875 126.815625 117.1875H173.184375C175.9125 117.1875 178.125 114.975 178.125 112.246875V107.8125C178.125 102.6375 182.325 98.4375 187.5 98.4375S196.875 102.6375 196.875 107.8125V112.246875C196.875 125.315625 186.253125 135.9375 173.184375 135.9375z" />
    <glyph glyph-name="043-print"
      unicode="&#xF12A;"
      horiz-adv-x="300" d="M258.9375 225H234.375V261.196875C234.375 272.259375 225.375 281.25 214.3125 281.25H85.6875C74.625 281.25 65.625 272.259375 65.625 261.196875V225H41.0625C23.596875 225 9.375 210.7875 9.375 193.3125V106.6875C9.375 89.2125 23.596875 75 41.0625 75H65.625V37.5000000000001C65.625 32.325 69.815625 28.1250000000001 75 28.1250000000001H225C230.184375 28.1250000000001 234.375 32.325 234.375 37.5000000000001V75H258.9375C276.403125 75 290.625 89.2125000000001 290.625 106.6875V193.3125C290.625 210.7875 276.403125 225 258.9375 225zM84.375 261.196875C84.375 261.909375 84.965625 262.5 85.6875 262.5H214.3125C215.04375 262.5 215.625 261.909375 215.625 261.196875V225H84.375zM215.625 46.875H84.375V103.125H215.625zM271.875 106.6875C271.875 99.43125 266.19375 93.75 258.9375 93.75H234.375V112.5C234.375 117.675 230.184375 121.875 225 121.875H75C69.815625 121.875 65.625 117.675 65.625 112.5V93.75H41.0625C33.80625 93.75 28.125 99.43125 28.125 106.6875V193.3125C28.125 200.56875 33.80625 206.25 41.0625 206.25H75H225H258.9375C266.184375 206.25 271.875 200.56875 271.875 193.3125zM206.25 187.5H196.875C191.690625 187.5 187.5 183.3 187.5 178.125S191.690625 168.75 196.875 168.75H206.25C211.434375 168.75 215.625 172.95 215.625 178.125S211.434375 187.5 206.25 187.5zM243.75 187.5H234.375C229.190625 187.5 225 183.3 225 178.125S229.190625 168.75 234.375 168.75H243.75C248.934375 168.75 253.125 172.95 253.125 178.125S248.934375 187.5 243.75 187.5z" />
    <glyph glyph-name="044-home"
      unicode="&#xF12B;"
      horiz-adv-x="300" d="M241.865625 9.375H58.134375C31.246875 9.375 9.375 31.246875 9.375 58.134375V166.003125C9.375 182.671875 17.746875 198 31.7625 207.01875L123.628125 266.0718750000001C139.640625 276.365625 160.35 276.365625 176.3625 266.0718750000001L268.2281250000001 207.01875C282.253125 198 290.625 182.6625 290.625 166.003125V58.14375C290.625 31.246875 268.753125 9.375 241.865625 9.375zM133.771875 250.29375L41.90625 191.240625C33.271875 185.690625 28.125 176.259375 28.125 166.003125V58.14375C28.125 41.5875 41.5875 28.125 58.134375 28.125H241.865625C258.4125 28.125 271.875 41.5875 271.875 58.134375V166.003125C271.875 176.259375 266.728125 185.7 258.09375 191.240625L166.2375 250.29375C156.375 256.63125 143.634375 256.63125 133.771875 250.29375zM173.4375 46.875H126.5625C105.88125 46.875 89.0625 63.69375 89.0625 84.375C89.0625 89.55 93.2625 93.75 98.4375 93.75S107.8125 89.55 107.8125 84.375C107.8125 74.034375 116.221875 65.625 126.5625 65.625H173.4375C183.778125 65.625 192.1875 74.034375 192.1875 84.375C192.1875 89.55 196.3875 93.75 201.5625 93.75S210.9375 89.55 210.9375 84.375C210.9375 63.69375 194.11875 46.875 173.4375 46.875z" />
    <glyph glyph-name="045-vip"
      unicode="&#xF12C;"
      horiz-adv-x="300" d="M150 32.8125C145.921875 32.8125 143.428125 35.475 143.04375 35.90625L11.79375 181.21875C8.915625 184.40625 8.56875 189.13125 10.95 192.703125L48.45 248.953125C50.19375 251.559375 53.11875 253.125 56.25 253.125H243.75C246.88125 253.125 249.80625 251.559375 251.55 248.953125L289.05 192.703125C291.4312500000001 189.13125 291.084375 184.40625 288.20625 181.21875L156.95625 35.90625C156.571875 35.475 154.078125 32.8125 150 32.8125zM30.6 188.371875L150 56.175L269.4000000000001 188.371875L238.734375 234.375H61.265625zM192.1875 187.5H107.8125C102.628125 187.5 98.4375 191.7 98.4375 196.875S102.628125 206.25 107.8125 206.25H192.1875C197.371875 206.25 201.5625 202.05 201.5625 196.875S197.371875 187.5 192.1875 187.5z" />
    <glyph glyph-name="046-user-interface"
      unicode="&#xF12D;"
      horiz-adv-x="300" d="M223.265625 9.375H76.734375C39.590625 9.375 9.375 39.590625 9.375 76.725V223.275C9.375 260.409375 39.590625 290.625 76.734375 290.625H223.275C260.409375 290.625 290.6250000000001 260.409375 290.6250000000001 223.275V76.725C290.6250000000001 39.590625 260.4093750000001 9.375 223.2656250000001 9.375zM76.734375 271.875C49.93125 271.875 28.125 250.06875 28.125 223.275V76.725C28.125 49.93125 49.93125 28.1249999999999 76.734375 28.1249999999999H223.275C250.06875 28.1249999999999 271.8750000000001 49.93125 271.8750000000001 76.725V223.275C271.8750000000001 250.06875 250.06875 271.875 223.2656250000001 271.875zM135.9375 103.125C112.678125 103.125 93.75 124.153125 93.75 150V187.5C93.75 192.646875 97.978125 196.875 103.125 196.875S112.5 192.646875 112.5 187.5V150C112.5 134.49375 123.009375 121.875 135.9375 121.875S159.375 134.49375 159.375 150V187.5C159.375 192.675 163.565625 196.875 168.75 196.875S178.125 192.675 178.125 187.5V150C178.125 124.153125 159.196875 103.125 135.9375 103.125zM196.875 103.125C191.728125 103.125 187.5 107.353125 187.5 112.5V187.5C187.5 192.646875 191.728125 196.875 196.875 196.875S206.25 192.646875 206.25 187.5V112.5C206.25 107.353125 202.021875 103.125 196.875 103.125z" />
    <glyph glyph-name="047-user-experience"
      unicode="&#xF12E;"
      horiz-adv-x="300" d="M223.265625 9.375H76.734375C39.590625 9.375 9.375 39.590625 9.375 76.725V223.275C9.375 260.409375 39.590625 290.625 76.734375 290.625H223.275C260.409375 290.625 290.6250000000001 260.409375 290.6250000000001 223.275V76.725C290.6250000000001 39.590625 260.4093750000001 9.375 223.2656250000001 9.375zM76.734375 271.875C49.93125 271.875 28.125 250.06875 28.125 223.275V76.725C28.125 49.93125 49.93125 28.1249999999999 76.734375 28.1249999999999H223.275C250.06875 28.1249999999999 271.8750000000001 49.93125 271.8750000000001 76.725V223.275C271.8750000000001 250.06875 250.06875 271.875 223.2656250000001 271.875zM145.3125 196.875C140.128125 196.875 135.9375 192.675 135.9375 187.5V150C135.9375 134.49375 125.428125 121.875 112.5 121.875S89.0625 134.49375 89.0625 150V187.5C89.0625 192.646875 84.834375 196.875 79.6875 196.875S70.3125 192.646875 70.3125 187.5V150C70.3125 124.153125 89.240625 103.125 112.5 103.125S154.6875 124.153125 154.6875 150V187.5C154.6875 192.675 150.496875 196.875 145.3125 196.875zM207.928125 150L228.2625 182.53125C231.009375 186.91875 229.66875 192.703125 225.290625 195.45C220.884375 198.196875 215.109375 196.846875 212.371875 192.46875L196.875 167.68125L181.3875 192.459375C178.65 196.85625 172.875 198.196875 168.46875 195.440625C164.08125 192.69375 162.75 186.909375 165.496875 182.521875L185.821875 150L165.4875 117.46875C162.759375 113.109375 164.1 107.26875 168.459375 104.55C172.81875 101.821875 178.65 103.171875 181.378125 107.53125L196.875 132.3187500000001L212.3625 107.540625C215.090625 103.18125 220.921875 101.83125 225.28125 104.559375S230.98125 113.11875 228.253125 117.478125z" />
    <glyph glyph-name="048-smartphone"
      unicode="&#xF12F;"
      horiz-adv-x="300" d="M216.9375 290.625H83.0625C63.103125 290.625 46.875 274.396875 46.875 254.4375V45.5625C46.875 25.603125 63.103125 9.375 83.0625 9.375H216.9375C236.8875 9.375 253.125 25.603125 253.125 45.5625V254.4375C253.125 274.396875 236.896875 290.625 216.9375 290.625zM180.946875 271.875L175.74375 262.5H124.275L119.071875 271.875zM234.375 45.5625C234.375 35.953125 226.55625 28.125 216.9375 28.125H83.0625C73.44375 28.125 65.625 35.94375 65.625 45.5625V254.4375C65.625 264.05625 73.44375 271.875 83.0625 271.875H97.6125L110.55 248.578125C112.209375 245.596875 115.340625 243.75 118.753125 243.75H181.25625C184.659375 243.75 187.8000000000001 245.596875 189.459375 248.578125L202.3875000000001 271.875H216.9375C226.5562500000001 271.875 234.3750000000001 264.05625 234.3750000000001 254.4375zM159.375 46.875H140.625C135.45 46.875 131.25 51.075 131.25 56.25S135.45 65.625 140.625 65.625H159.375C164.55 65.625 168.75 61.425 168.75 56.25S164.55 46.875 159.375 46.875z" />
    <glyph glyph-name="049-folder"
      unicode="&#xF130;"
      horiz-adv-x="300" d="M254.034375 28.125H45.965625C25.790625 28.125 9.375 44.540625 9.375 64.715625V244.659375C9.375 264.834375 25.790625 281.25 45.965625 281.25H129.178125C139.509375 281.25 149.240625 275.746875 154.55625 266.878125L170.896875 239.64375C172.846875 236.390625 176.409375 234.375 180.196875 234.375H254.034375C274.209375 234.375 290.625 217.959375 290.625 197.784375V64.715625C290.625 44.540625 274.209375 28.125 254.034375 28.125zM45.965625 262.5C36.13125 262.5 28.125 254.49375 28.125 244.659375V64.715625C28.125 54.88125 36.13125 46.875 45.965625 46.875H254.034375C263.8687500000001 46.875 271.875 54.88125 271.875 64.715625V197.784375C271.875 207.61875 263.8687500000001 215.625 254.034375 215.625H180.196875C169.865625 215.625 160.134375 221.128125 154.81875 229.996875L138.478125 257.23125C136.528125 260.484375 132.965625 262.5 129.178125 262.5zM121.875 215.625H56.25C51.075 215.625 46.875 219.825 46.875 225S51.075 234.375 56.25 234.375H121.875C127.05 234.375 131.25 230.175 131.25 225S127.05 215.625 121.875 215.625zM103.125 93.75H56.25C51.075 93.75 46.875 97.95 46.875 103.125S51.075 112.5 56.25 112.5H103.125C108.3 112.5 112.5 108.3 112.5 103.125S108.3 93.75 103.125 93.75zM159.375 65.625H56.25C51.075 65.625 46.875 69.825 46.875 75S51.075 84.375 56.25 84.375H159.375C164.55 84.375 168.75 80.175 168.75 75S164.55 65.625 159.375 65.625z" />
    <glyph glyph-name="050-key"
      unicode="&#xF131;"
      horiz-adv-x="300" d="M150 290.625C72.459375 290.625 9.375 227.540625 9.375 150S72.459375 9.375 150 9.375S290.625 72.459375 290.625 150S227.540625 290.625 150 290.625zM150 28.125C82.8 28.125 28.125 82.8 28.125 150S82.8 271.875 150 271.875S271.875 217.2 271.875 150S217.2 28.125 150 28.125zM225 159.375H139.29375C135.103125 175.5 120.54375 187.5 103.125 187.5C82.44375 187.5 65.625 170.68125 65.625 150S82.44375 112.5 103.125 112.5C120.54375 112.5 135.103125 124.5 139.29375 140.625H178.125V131.25C178.125 126.075 182.325 121.875 187.5 121.875S196.875 126.075 196.875 131.25V140.625H215.625V121.875C215.625 116.7 219.825 112.5 225 112.5S234.375 116.7 234.375 121.875V150C234.375 155.175 230.175 159.375 225 159.375zM103.125 131.25C92.784375 131.25 84.375 139.659375 84.375 150S92.784375 168.75 103.125 168.75S121.875 160.340625 121.875 150S113.465625 131.25 103.125 131.25z" />
    <glyph glyph-name="051-bookmark"
      unicode="&#xF132;"
      horiz-adv-x="300" d="M225 290.625H75C60.5625 290.625 47.8125 283.3125 40.125 272.15625C35.53125 265.40625 32.8125 257.25 32.8125 248.4375V196.875C32.8125 191.71875 37.03125 187.5 42.1875 187.5H98.4375V18.75C98.4375 15.09375 100.59375 11.71875 103.96875 10.21875C107.25 8.71875 111.1875 9.28125 114 11.71875L182.8125 71.90625L251.625 11.71875C254.38125 9.3 258.31875 8.71875 261.65625 10.21875C265.003125 11.728125 267.178125 15.075 267.1875 18.75V248.4375C267.1875 271.6875 248.25 290.625 225 290.625zM51.5625 206.25V248.4375C51.5625 261.375 62.0625 271.875 75 271.875S98.4375 261.375 98.4375 248.4375V215.625V206.25zM248.4375 39.375L189 91.40625C185.4375 94.5 180.1875 94.5 176.625 91.40625L117.1875 39.375V196.875C117.1875 214.059375 117.1875 231.253125 117.1875 248.4375C117.1875 257.15625 114.5625 265.125 110.0625 271.875H225C237.9375 271.875 248.4375 261.375 248.4375 248.4375z" />
    <glyph glyph-name="052-lock"
      unicode="&#xF133;"
      horiz-adv-x="300" d="M238.621875 206.25H225V215.625C225 256.978125 191.353125 290.625 150 290.625S75 256.978125 75 215.625V206.25H61.378125C43.040625 206.25 28.125 191.334375 28.125 172.996875V42.628125C28.125 24.290625 43.040625 9.3749999999999 61.378125 9.3749999999999H238.621875C256.959375 9.3749999999999 271.875 24.290625 271.875 42.628125V172.996875C271.875 191.334375 256.959375 206.25 238.621875 206.25zM93.75 215.625C93.75 246.646875 118.978125 271.875 150 271.875S206.25 246.646875 206.25 215.625V206.25H93.75zM253.125 42.628125C253.125 34.63125 246.61875 28.125 238.621875 28.125H61.378125C53.38125 28.125 46.875 34.63125 46.875 42.628125V172.996875C46.875 180.99375 53.38125 187.5 61.378125 187.5H84.375H215.625H238.621875C246.61875 187.5 253.125 180.99375 253.125 172.996875zM150 150C134.49375 150 121.875 137.38125 121.875 121.875C121.875 109.66875 129.740625 99.35625 140.625 95.475V65.625C140.625 60.45 144.825 56.25 150 56.25S159.375 60.45 159.375 65.625V95.475C170.259375 99.35625 178.125 109.66875 178.125 121.875C178.125 137.38125 165.50625 150 150 150zM150 112.5C144.834375 112.5 140.625 116.709375 140.625 121.875S144.834375 131.25 150 131.25S159.375 127.040625 159.375 121.875S155.165625 112.5 150 112.5z" />
    <glyph glyph-name="053-heart"
      unicode="&#xF134;"
      horiz-adv-x="300" d="M275.8981000456225 250.3789606911066C243.2706883103504 282.9975422743529 190.1926444833625 282.9975422743529 157.5740629001163 250.3789606911066L149.9977924619935 242.8071053289968L142.4259370998837 250.3789606911066C109.8073555166374 283.0019573503658 56.7248966136367 283.0019573503658 24.1063150303904 250.3789606911066C-7.850005150922 218.4226405097941 -8.057513723528 167.768473413884 23.6250717449852 132.5494120590443C52.5217442493635 100.4385642172806 137.7459565262182 31.0644748267083 141.3619037807767 28.1284492781351C143.8166860439447 26.1328349203079 146.7703718965695 25.1615181974717 149.7063974451427 25.1615181974717C149.8035291174263 25.1615181974717 149.9006607897099 25.1615181974717 149.9933773859806 25.1659332734845C153.0309496828504 25.024650841072 156.0905973597845 26.0666087801145 158.6248509911845 28.1284492781351C162.2407982457431 31.0644748267083 247.4738406746236 100.4385642172806 276.3793433310276 132.5538271350572C308.0575137235279 167.768473413884 307.850005150922 218.4226405097941 275.8981000456225 250.3789606911066zM256.6881043135293 150.2715271747929C234.1579714197413 125.242461257708 172.2277001869049 73.6213925149745 149.9933773859806 55.3032421374855C127.7590545850564 73.6169774389616 65.8420285802587 125.2336311056822 43.3163107624836 150.26711209878C21.2144402419462 174.8325950345112 21.0069316693402 209.8176573606676 42.8350674770784 231.6457931684057C53.9831344096308 242.7894450249452 68.6235264683807 248.3656860292278 83.2639185271306 248.3656860292278S112.5447026446305 242.7938601009581 123.6927695771829 231.6457931684057L140.3464362978116 214.992126447777C142.3288054276001 213.0097573179885 144.827738450897 211.8265169465335 147.4502936025548 211.4114998013216C151.7064268789828 210.497579066653 156.3245963884678 211.6852345141209 159.6359033981368 214.9877113717641L176.2984002707913 231.6457931684057C198.5989492119089 253.9375119574976 234.8732137338298 253.9330968814847 257.1605174469087 231.6457931684057C278.9886532546469 209.8176573606676 278.7811446820409 174.8325950345112 256.6881043135293 150.2715271747929z" />
    <glyph glyph-name="054-compare"
      unicode="&#xF135;"
      horiz-adv-x="300" d="M25 187.5H119.825L91.1625 158.8375A12.5 12.5 0 1 1 108.8375 141.1625L158.8375 191.1625A12.5 12.5 0 0 1 158.8375 208.8375L108.8375 258.8375000000001A12.5 12.5 0 1 1 91.1625 241.1625L119.825 212.5H25A12.5 12.5 0 0 1 25 187.5zM275 112.5H180.175L208.8375 141.1625A12.5 12.5 0 0 1 191.1625 158.8375L141.1625 108.8375A12.5 12.5 0 0 1 141.1625 91.1625L191.1625 41.1625A12.5 12.5 0 0 1 208.8375 58.8375L180.175 87.5H275A12.5 12.5 0 0 1 275 112.5z" />
    <glyph glyph-name="055-email"
      unicode="&#xF136;"
      horiz-adv-x="300" d="M194.38828125 137.5482421875L169.2626953125 112.3376953125C159.073828125 102.1130859375 141.146484375 101.8927734375 130.7373046875 112.3376953125L105.610546875 137.5482421875L15.366796875 47.0115234375C18.7259765625 45.458203125 22.4296875 44.53125 26.3671875 44.53125H273.6328125C277.5703125 44.53125 281.2728515625 45.45703125 284.630859375 47.0109375L194.38828125 137.5482421875zM273.6328125 255.46875H26.3671875C22.4296875 255.46875 18.7259765625 254.541796875 15.36796875 252.9884765625L111.7998046875 156.23671875C111.80625 156.2302734375 111.8138671875 156.2291015625 111.8203125 156.22265625C111.8267578125 156.2162109375 111.8279296875 156.207421875 111.8279296875 156.207421875L143.183203125 124.7484375C146.513671875 121.41796875 153.4875 121.41796875 156.81796875 124.7484375L188.166796875 156.2021484375C188.166796875 156.2021484375 188.1744140625 156.2162109375 188.180859375 156.22265625C188.180859375 156.22265625 188.194921875 156.2302734375 188.2013671875001 156.23671875L284.630859375 252.9890625C281.2728515625 254.54296875 277.5703125 255.46875 273.6328125 255.46875zM2.804296875 240.69609375C1.06640625 237.181640625 0 233.28046875 0 229.1015625V70.8984375C0 66.71953125 1.065234375 62.818359375 2.8037109375 59.30390625L93.20390625 149.9970703125L2.804296875 240.69609375zM297.195703125 240.697265625L206.7966796875 149.9970703125L297.195703125 59.302734375C298.93359375 62.8171875 300 66.718359375 300 70.8984375V229.1015625C300 233.281640625 298.93359375 237.1828125 297.195703125 240.697265625z" />
    <glyph glyph-name="056-mail-1"
      unicode="&#xF137;"
      horiz-adv-x="300" d="M297.357421875 240.3978515625L206.3736328125 150L297.357421875 59.6021484375C299.0021484375 63.03984375 300 66.840234375 300 70.8984375V229.1015625C300 233.1603515625 299.0021484375 236.96015625 297.357421875 240.3978515625zM273.6328125 255.46875H26.3671875C22.3083984375 255.46875 18.50859375 254.4708984375 15.0708984375 252.826171875L131.3578125 137.1251953125C141.63984375 126.8431640625 158.36015625 126.8431640625 168.6421875 137.1251953125L284.9291015625 252.826171875C281.49140625 254.4708984375 277.6916015625 255.46875 273.6328125 255.46875zM2.642578125 240.3978515625C0.9978515625 236.96015625 0 233.1603515625 0 229.1015625V70.8984375C0 66.8396484375 0.9978515625 63.0392578125 2.642578125 59.6021484375L93.6263671875 150L2.642578125 240.3978515625zM193.9453125 137.5716796875L181.0705078125 124.696875C163.93828125 107.5646484375 136.0611328125 107.5646484375 118.92890625 124.696875L106.0546875 137.5716796875L15.0708984375 47.173828125C18.50859375 45.5291015625 22.3083984375 44.53125 26.3671875 44.53125H273.6328125C277.6916015625 44.53125 281.49140625 45.5291015625 284.9291015625 47.173828125L193.9453125 137.5716796875z" />
    <glyph glyph-name="057-email-1"
      unicode="&#xF138;"
      horiz-adv-x="300" d="M175.0716796875 116.1955078125C167.6080078125 111.2197265625 158.9384765625 108.589453125 150 108.589453125C141.062109375 108.589453125 132.392578125 111.2197265625 124.92890625 116.1955078125L1.9974609375 198.15234375C1.3154296875 198.60703125 0.6509765625 199.0810546875 0 199.5685546875V65.2734375C0 49.876171875 12.4951171875 37.6564453125 27.6169921875 37.6564453125H272.382421875C287.7796875 37.6564453125 299.9994140625 50.1515625 299.9994140625 65.2734375V199.569140625C299.347265625 199.08046875 298.681640625 198.6052734375 297.9978515625 198.15zM11.748046875 212.778515625L134.6794921875 130.82109375C139.3330078125 127.7185546875 144.6662109375 126.167578125 149.9994140625 126.167578125C155.333203125 126.167578125 160.6669921875 127.719140625 165.3205078125001 130.82109375L288.251953125 212.778515625C295.6083984375001 217.6798828125 300 225.8830078125 300 234.7365234375C300 249.959765625 287.6150390625 262.344140625 272.3923828125 262.344140625H27.6076171875C12.3849609375 262.3435546875 0 249.9591796875 0 234.721875C0 225.8830078125 4.3921875 217.6798828125 11.748046875 212.778515625z" />
  </font>
</defs>
</svg>
